<?xml version="1.0" standalone="no"?>
<!DOCTYPE svg PUBLIC "-//W3C//DTD SVG 1.1//EN" "http://www.w3.org/Graphics/SVG/1.1/DTD/svg11.dtd" >
<svg xmlns="http://www.w3.org/2000/svg">
<metadata>Generated by IcoMoon</metadata>
<defs>
<font id="around-icons" horiz-adv-x="1024">
<font-face units-per-em="1024" ascent="960" descent="-64" />
<missing-glyph horiz-adv-x="1024" />
<glyph unicode="&#x20;" horiz-adv-x="512" d="" />
<glyph unicode="&#xe900;" glyph-name="activity" d="M430.933 776.533c12.8 0 21.333-8.533 25.6-21.333l149.333-524.8 132.267 234.667c4.267 8.533 17.067 17.067 29.867 17.067h128c17.067 0 34.133-12.8 34.133-34.133s-12.8-34.133-34.133-34.133h-110.933l-162.133-281.6c-4.267-12.8-17.067-17.067-29.867-17.067s-21.333 8.533-25.6 21.333l-149.333 529.067-132.267-234.667c-4.267-8.533-17.067-17.067-29.867-17.067h-128c-17.067 0-34.133 12.8-34.133 34.133s12.8 34.133 34.133 34.133h110.933l162.133 281.6c4.267 8.533 17.067 17.067 29.867 12.8z" />
<glyph unicode="&#xe901;" glyph-name="airbnb" d="M512 110.933c-55.467-59.733-119.467-119.467-200.533-128v0c-4.267 0-8.533-4.267-12.8-4.267-119.467-17.067-213.333 81.067-213.333 200.533 0 98.133 123.733 311.467 260.267 588.8 29.867 76.8 64 149.333 166.4 149.333s136.533-68.267 179.2-162.133c251.733-499.2 251.733-529.067 251.733-580.267 0-59.733-25.6-115.2-68.267-153.6-85.333-68.267-217.6-68.267-362.667 89.6zM883.2 179.2c0 76.8-119.467 285.867-247.467 550.4-34.133 68.267-55.467 128-123.733 128-64 0-81.067-38.4-119.467-115.2-128-268.8-251.733-486.4-251.733-567.467 0-76.8 59.733-149.333 162.133-136.533 68.267 8.533 123.733 68.267 166.4 115.2-435.2 558.933 512 558.933 76.8 0 179.2-200.533 337.067-102.4 337.067 25.6zM413.867 413.867c0-55.467 34.133-123.733 98.133-209.067 64 85.333 98.133 157.867 98.133 209.067 0 140.8-196.267 140.8-196.267 0z" />
<glyph unicode="&#xe902;" glyph-name="align-center" d="M170.667 738.133c-17.067 0-34.133-17.067-34.133-34.133s17.067-34.133 34.133-34.133h682.667c17.067 0 34.133 12.8 34.133 34.133s-17.067 34.133-34.133 34.133h-682.667zM170.667 396.8c-17.067 0-34.133-12.8-34.133-34.133s12.8-34.133 34.133-34.133h682.667c17.067 0 34.133 12.8 34.133 34.133s-12.8 34.133-34.133 34.133h-682.667zM264.533 533.333c0 17.067 12.8 34.133 34.133 34.133h426.667c17.067 0 34.133-12.8 34.133-34.133 0-17.067-12.8-34.133-34.133-34.133h-426.667c-17.067 0-34.133 17.067-34.133 34.133zM298.667 226.133c-17.067 0-34.133-12.8-34.133-34.133s12.8-34.133 34.133-34.133h426.667c17.067 0 34.133 12.8 34.133 34.133s-12.8 34.133-34.133 34.133h-426.667z" />
<glyph unicode="&#xe903;" glyph-name="align-justify" d="M170.667 738.133c-17.067 0-34.133-17.067-34.133-34.133s17.067-34.133 34.133-34.133h682.667c17.067 0 34.133 12.8 34.133 34.133s-17.067 34.133-34.133 34.133h-682.667zM170.667 396.8c-17.067 0-34.133-12.8-34.133-34.133s12.8-34.133 34.133-34.133h682.667c17.067 0 34.133 12.8 34.133 34.133s-12.8 34.133-34.133 34.133h-682.667zM136.533 533.333c0 17.067 12.8 34.133 34.133 34.133h682.667c17.067 0 34.133-12.8 34.133-34.133 0-17.067-12.8-34.133-34.133-34.133h-682.667c-17.067 0-34.133 17.067-34.133 34.133zM170.667 226.133c-17.067 0-34.133-12.8-34.133-34.133s12.8-34.133 34.133-34.133h682.667c17.067 0 34.133 12.8 34.133 34.133s-12.8 34.133-34.133 34.133h-682.667z" />
<glyph unicode="&#xe904;" glyph-name="align-left" d="M170.667 738.133c-17.067 0-34.133-17.067-34.133-34.133s17.067-34.133 34.133-34.133h682.667c17.067 0 34.133 12.8 34.133 34.133s-17.067 34.133-34.133 34.133h-682.667zM170.667 396.8c-17.067 0-34.133-12.8-34.133-34.133s12.8-34.133 34.133-34.133h682.667c17.067 0 34.133 12.8 34.133 34.133s-12.8 34.133-34.133 34.133h-682.667zM136.533 533.333c0 17.067 12.8 34.133 34.133 34.133h426.667c17.067 0 34.133-12.8 34.133-34.133 0-17.067-12.8-34.133-34.133-34.133h-426.667c-17.067 0-34.133 17.067-34.133 34.133zM170.667 226.133c-17.067 0-34.133-12.8-34.133-34.133s12.8-34.133 34.133-34.133h426.667c17.067 0 34.133 12.8 34.133 34.133s-12.8 34.133-34.133 34.133h-426.667z" />
<glyph unicode="&#xe905;" glyph-name="align-right" d="M170.667 738.133c-17.067 0-34.133-17.067-34.133-34.133s17.067-34.133 34.133-34.133h682.667c17.067 0 34.133 12.8 34.133 34.133s-17.067 34.133-34.133 34.133h-682.667zM170.667 396.8c-17.067 0-34.133-12.8-34.133-34.133s12.8-34.133 34.133-34.133h682.667c17.067 0 34.133 12.8 34.133 34.133s-12.8 34.133-34.133 34.133h-682.667zM392.533 533.333c0 17.067 12.8 34.133 34.133 34.133h426.667c17.067 0 34.133-12.8 34.133-34.133 0-17.067-12.8-34.133-34.133-34.133h-426.667c-17.067 0-34.133 17.067-34.133 34.133zM426.667 226.133c-17.067 0-34.133-12.8-34.133-34.133s12.8-34.133 34.133-34.133h426.667c17.067 0 34.133 12.8 34.133 34.133s-12.8 34.133-34.133 34.133h-426.667z" />
<glyph unicode="&#xe906;" glyph-name="anchor" d="M512 814.933c-46.933 0-89.6-38.4-89.6-89.6s38.4-89.6 89.6-89.6 89.6 38.4 89.6 89.6-42.667 89.6-89.6 89.6zM665.6 725.333c0-72.533-51.2-132.267-119.467-149.333v-499.2c89.6 8.533 166.4 42.667 230.4 106.667s98.133 145.067 106.667 230.4h-132.267c-17.067 0-29.867 12.8-29.867 29.867s12.8 29.867 29.867 29.867h157.867c17.067 0 29.867-12.8 29.867-29.867 0-115.2-42.667-221.867-123.733-302.933s-192-123.733-302.933-123.733c-115.2 0-221.867 42.667-302.933 123.733s-123.733 192-123.733 302.933c0 8.533 4.267 17.067 8.533 21.333s12.8 8.533 21.333 8.533h157.867c17.067 0 29.867-12.8 29.867-29.867s-21.333-29.867-34.133-29.867h-128c8.533-85.333 42.667-166.4 106.667-226.133 64-64 145.067-98.133 230.4-106.667v499.2c-59.733 12.8-115.2 76.8-115.2 145.067 0 85.333 68.267 153.6 153.6 153.6 81.067 0 149.333-68.267 149.333-153.6z" />
<glyph unicode="&#xe907;" glyph-name="apple" d="M708.267 960c4.267 0 4.267 0 8.533 0 4.267-72.533-21.333-128-55.467-166.4s-76.8-76.8-149.333-72.533c-4.267 72.533 21.333 119.467 55.467 162.133 29.867 38.4 85.333 68.267 140.8 76.8zM930.133 209.067c0 0 0 0 0 0-21.333-64-51.2-115.2-85.333-166.4-34.133-42.667-72.533-106.667-145.067-106.667-59.733 0-102.4 42.667-166.4 42.667-68.267 0-102.4-34.133-162.133-42.667-8.533 0-12.8 0-21.333 0-42.667 8.533-81.067 42.667-106.667 72.533-76.8 93.867-136.533 217.6-149.333 371.2 0 17.067 0 29.867 0 46.933 4.267 110.933 59.733 200.533 132.267 247.467 38.4 21.333 89.6 42.667 149.333 34.133 25.6-4.267 51.2-12.8 72.533-21.333s46.933-21.333 72.533-21.333c17.067 0 34.133 8.533 51.2 17.067 51.2 17.067 98.133 38.4 162.133 29.867 76.8-12.8 132.267-46.933 166.4-98.133-64-42.667-119.467-106.667-110.933-213.333 12.8-102.4 68.267-157.867 140.8-192z" />
<glyph unicode="&#xe908;" glyph-name="archive" d="M192 776.533h640c25.6 0 46.933-25.6 46.933-46.933s-17.067-46.933-46.933-46.933h-640c-25.6 0-46.933 21.333-46.933 46.933s17.067 46.933 46.933 46.933zM81.067 725.333c0-51.2 29.867-89.6 81.067-102.4v-456.533c0-29.867 12.8-55.467 29.867-76.8 21.333-21.333 46.933-29.867 76.8-29.867h477.867c29.867 0 55.467 12.8 76.8 29.867 21.333 21.333 29.867 46.933 29.867 76.8v456.533c46.933 12.8 81.067 55.467 81.067 102.4 0 59.733-46.933 110.933-110.933 110.933h-631.467c-59.733 4.267-110.933-51.2-110.933-110.933zM226.133 170.667v443.733h580.267v-448c0-12.8-4.267-25.6-17.067-34.133-12.8-12.8-25.6-17.067-34.133-17.067h-482.133c-12.8 0-25.6 4.267-34.133 17.067s-12.8 25.6-12.8 38.4zM354.133 520.533h320c17.067 0 29.867-8.533 29.867-29.867 0-17.067-12.8-29.867-29.867-29.867h-320c-17.067 0-29.867 8.533-29.867 29.867 0 17.067 12.8 29.867 29.867 29.867z" />
<glyph unicode="&#xe909;" glyph-name="arrow-down-left" d="M797.867 682.667c17.067 17.067 17.067 42.667 0 55.467-17.067 17.067-42.667 17.067-55.467 0l-452.267-452.267v264.533c0 21.333-17.067 42.667-42.667 42.667s-34.133-21.333-34.133-42.667v-362.667c0-4.267 0-8.533 4.267-17.067 0-4.267 4.267-8.533 8.533-8.533v0 0c4.267-4.267 8.533-4.267 8.533-8.533 4.267 0 8.533-4.267 17.067-4.267h362.667c21.333 0 42.667 17.067 42.667 42.667s-17.067 42.667-42.667 42.667h-268.8l452.267 448z" />
<glyph unicode="&#xe90a;" glyph-name="arrow-down-right" d="M281.6 729.6c-17.067 17.067-42.667 17.067-55.467 0-17.067-17.067-17.067-42.667 0-55.467l448-448h-264.533c-21.333 0-42.667-17.067-42.667-42.667s17.067-42.667 42.667-42.667h358.4c4.267 0 8.533 0 17.067 4.267 4.267 0 8.533 4.267 8.533 8.533v0c4.267 4.267 4.267 8.533 8.533 8.533 0 4.267 4.267 8.533 4.267 17.067v366.933c0 21.333-17.067 42.667-42.667 42.667s-42.667-17.067-42.667-42.667v-268.8l-439.467 452.267z" />
<glyph unicode="&#xe90b;" glyph-name="arrow-down" d="M789.333 371.2l-251.733-251.733c-4.267-4.267-8.533-4.267-8.533-8.533-4.267 0-8.533-4.267-17.067-4.267-4.267 0-8.533 0-17.067 4.267-4.267 0-8.533 4.267-8.533 8.533l-251.733 251.733c-17.067 17.067-17.067 38.4 0 55.467s38.4 17.067 55.467 0l187.733-187.733v512c0 21.333 17.067 38.4 38.4 38.4s38.4-17.067 38.4-38.4v-512l187.733 187.733c17.067 17.067 38.4 17.067 55.467 0 4.267-17.067 4.267-38.4-8.533-55.467z" />
<glyph unicode="&#xe90c;" glyph-name="arrow-left" d="M849.067 448c0-21.333-17.067-38.4-38.4-38.4h-507.733l183.467-183.467c17.067-17.067 17.067-38.4 0-55.467s-38.4-17.067-55.467 0l-247.467 247.467c-4.267 4.267-4.267 8.533-8.533 8.533 0 4.267-4.267 8.533-4.267 17.067s0 8.533 4.267 17.067c0 4.267 4.267 8.533 8.533 8.533l247.467 247.467c17.067 17.067 38.4 17.067 55.467 0s17.067-38.4 0-55.467l-183.467-183.467h507.733c21.333 12.8 38.4-8.533 38.4-29.867z" />
<glyph unicode="&#xe90d;" glyph-name="arrow-right" d="M853.333 448c0-4.267 0-8.533-4.267-17.067 0-4.267-4.267-8.533-8.533-8.533l-251.733-251.733c-17.067-17.067-38.4-17.067-55.467 0s-17.067 38.4 0 55.467l187.733 187.733h-512c-21.333 0-38.4 17.067-38.4 38.4s17.067 38.4 38.4 38.4h512l-187.733 187.733c-17.067 17.067-17.067 38.4 0 55.467s38.4 17.067 55.467 0l251.733-251.733c4.267-4.267 4.267-8.533 8.533-8.533 0-17.067 4.267-21.333 4.267-25.6z" />
<glyph unicode="&#xe90e;" glyph-name="arrow-up-left" d="M217.6 721.067c0-4.267-4.267-12.8-4.267-17.067v-358.4c0-21.333 17.067-42.667 42.667-42.667s42.667 17.067 42.667 42.667v264.533l448-448c17.067-17.067 42.667-17.067 55.467 0 17.067 17.067 17.067 42.667 0 55.467l-456.533 448h268.8c21.333 0 42.667 17.067 42.667 42.667s-21.333 42.667-42.667 42.667h-358.4c-12.8-4.267-21.333-8.533-25.6-17.067-4.267-4.267-12.8-8.533-12.8-12.8z" />
<glyph unicode="&#xe90f;" glyph-name="arrow-up-right" d="M802.133 721.067c0 4.267-4.267 8.533-8.533 8.533v0 0c-4.267 4.267-17.067 8.533-25.6 8.533h-358.4c-21.333 8.533-42.667-12.8-42.667-34.133s21.333-42.667 42.667-42.667h268.8l-448-443.733c-17.067-17.067-17.067-42.667 0-55.467 17.067-17.067 42.667-17.067 55.467 0l448 443.733v-260.267c0-21.333 17.067-42.667 42.667-42.667s42.667 17.067 42.667 42.667v358.4c-8.533 8.533-17.067 12.8-17.067 17.067z" />
<glyph unicode="&#xe910;" glyph-name="arrow-up" d="M785.067 473.6c-17.067-17.067-38.4-17.067-55.467 0l-183.467 183.467v-507.733c0-21.333-17.067-38.4-38.4-38.4-25.6 0-38.4 17.067-38.4 38.4v507.733l-183.467-183.467c-17.067-17.067-38.4-17.067-55.467 0s-17.067 38.4 0 55.467l247.467 247.467c4.267 4.267 8.533 4.267 8.533 8.533 4.267 0 8.533 4.267 17.067 4.267s8.533 0 17.067-4.267c4.267 0 8.533-4.267 8.533-8.533l247.467-247.467c25.6-21.333 25.6-42.667 8.533-55.467z" />
<glyph unicode="&#xe911;" glyph-name="at" d="M891.733 584.533c-42.667 102.4-123.733 183.467-226.133 226.133-106.667 42.667-226.133 42.667-332.8 0-98.133-42.667-179.2-123.733-226.133-226.133-21.333-51.2-29.867-106.667-29.867-162.133s12.8-115.2 29.867-166.4c42.667-102.4 123.733-183.467 226.133-226.133 51.2-25.6 106.667-29.867 166.4-29.867 55.467 0 110.933 12.8 166.4 29.867 17.067 8.533 25.6 25.6 17.067 38.4-8.533 17.067-25.6 25.6-38.4 17.067-89.6-38.4-192-38.4-285.867 0-85.333 34.133-157.867 106.667-192 192-21.333 42.667-25.6 93.867-25.6 140.8s8.533 98.133 25.6 140.8c34.133 85.333 106.667 157.867 192 192 89.6 38.4 192 38.4 285.867 0 85.333-34.133 157.867-106.667 192-192 21.333-42.667 25.6-93.867 25.6-140.8v-38.4c0-25.6-8.533-46.933-25.6-64-29.867-29.867-89.6-29.867-128 0-17.067 17.067-25.6 38.4-25.6 64v200.533c0 17.067-12.8 29.867-29.867 29.867-21.333 0-21.333-17.067-21.333-29.867v-25.6c-34.133 29.867-81.067 51.2-132.267 51.2-102.4 0-187.733-81.067-187.733-187.733s85.333-183.467 192-183.467c59.733 0 115.2 25.6 149.333 76.8 8.533-12.8 12.8-25.6 25.6-29.867 55.467-55.467 153.6-55.467 209.067 0 25.6 25.6 42.667 68.267 42.667 106.667v38.4c-4.267 51.2-17.067 106.667-38.4 157.867zM499.2 290.133c-72.533 0-128 59.733-128 128s59.733 132.267 128 132.267 132.267-59.733 132.267-128-59.733-132.267-132.267-132.267z" />
<glyph unicode="&#xe912;" glyph-name="award" d="M290.133 618.667c0-64 25.6-119.467 64-162.133 4.267 0 8.533-4.267 12.8-8.533 38.4-34.133 85.333-51.2 140.8-51.2s106.667 17.067 145.067 51.2c4.267 4.267 8.533 4.267 12.8 8.533 42.667 42.667 68.267 98.133 68.267 162.133 0 119.467-98.133 221.867-221.867 221.867-119.467 0-221.867-98.133-221.867-221.867zM307.2 413.867c-51.2 51.2-85.333 123.733-85.333 204.8 0 157.867 128 290.133 290.133 290.133 157.867 0 290.133-128 290.133-290.133 0-81.067-34.133-153.6-85.333-204.8v-349.867c0-12.8-4.267-21.333-17.067-25.6-8.533-4.267-21.333-4.267-29.867 0l-157.867 76.8-157.867-76.8c-8.533-4.267-21.333-4.267-29.867 0s-17.067 17.067-17.067 25.6v349.867zM375.467 366.933v-251.733l123.733 64c8.533 4.267 21.333 4.267 29.867 0l123.733-64v251.733c-42.667-21.333-89.6-34.133-136.533-34.133s-102.4 12.8-140.8 34.133z" />
<glyph unicode="&#xe913;" glyph-name="bar-chart-1" d="M85.333 866.133c17.067 0 34.133-12.8 34.133-34.133v-768c0-17.067-12.8-34.133-34.133-34.133s-34.133 17.067-34.133 34.133v768c0 17.067 17.067 34.133 34.133 34.133zM298.667 695.467c17.067 0 34.133-12.8 34.133-34.133v-597.333c0-17.067-12.8-34.133-34.133-34.133s-34.133 17.067-34.133 34.133v597.333c0 17.067 17.067 34.133 34.133 34.133zM546.133 490.667c0 17.067-12.8 34.133-34.133 34.133s-34.133-12.8-34.133-34.133v-426.667c0-17.067 12.8-34.133 34.133-34.133s34.133 12.8 34.133 34.133v426.667zM725.333 396.8c17.067 0 34.133-12.8 34.133-34.133v-298.667c0-17.067-12.8-34.133-34.133-34.133s-34.133 12.8-34.133 34.133v298.667c0 17.067 17.067 34.133 34.133 34.133zM972.8 234.667c0 17.067-12.8 34.133-34.133 34.133s-34.133-12.8-34.133-34.133v-170.667c0-17.067 12.8-34.133 34.133-34.133s34.133 12.8 34.133 34.133v170.667z" />
<glyph unicode="&#xe914;" glyph-name="bar-chart-2" d="M512 866.133c17.067 0 34.133-12.8 34.133-34.133v-768c0-17.067-12.8-34.133-34.133-34.133s-34.133 12.8-34.133 34.133v768c0 17.067 17.067 34.133 34.133 34.133zM725.333 567.467c17.067 0 34.133-12.8 34.133-34.133v-469.333c0-17.067-12.8-34.133-34.133-34.133s-34.133 12.8-34.133 34.133v469.333c0 17.067 17.067 34.133 34.133 34.133zM332.8 661.333c0 17.067-12.8 34.133-34.133 34.133s-34.133-17.067-34.133-34.133v-597.333c0-17.067 12.8-34.133 34.133-34.133s34.133 12.8 34.133 34.133v597.333zM85.333 482.133c17.067 0 34.133-12.8 34.133-34.133v-384c0-17.067-12.8-34.133-34.133-34.133s-34.133 17.067-34.133 34.133v384c0 17.067 17.067 34.133 34.133 34.133zM972.8 277.333c0 17.067-12.8 34.133-34.133 34.133s-34.133-12.8-34.133-34.133v-213.333c0-17.067 12.8-34.133 34.133-34.133s34.133 12.8 34.133 34.133v213.333z" />
<glyph unicode="&#xe915;" glyph-name="bar-chart-3" d="M938.667 866.133c17.067 0 34.133-12.8 34.133-34.133v-768c0-17.067-12.8-34.133-34.133-34.133s-34.133 12.8-34.133 34.133v768c0 17.067 17.067 34.133 34.133 34.133zM725.333 695.467c17.067 0 34.133-12.8 34.133-34.133v-597.333c0-17.067-12.8-34.133-34.133-34.133s-34.133 12.8-34.133 34.133v597.333c0 17.067 17.067 34.133 34.133 34.133zM546.133 490.667c0 17.067-12.8 34.133-34.133 34.133s-34.133-12.8-34.133-34.133v-426.667c0-17.067 12.8-34.133 34.133-34.133s34.133 12.8 34.133 34.133v426.667zM298.667 396.8c17.067 0 34.133-12.8 34.133-34.133v-298.667c0-17.067-12.8-34.133-34.133-34.133s-34.133 17.067-34.133 34.133v298.667c0 17.067 17.067 34.133 34.133 34.133zM119.467 234.667c0 17.067-12.8 34.133-34.133 34.133s-34.133-17.067-34.133-34.133v-170.667c0-17.067 12.8-34.133 34.133-34.133s34.133 12.8 34.133 34.133v170.667z" />
<glyph unicode="&#xe916;" glyph-name="battery-1" d="M170.667 669.867h597.333c25.6 0 51.2-21.333 51.2-51.2v-341.333c0-25.6-21.333-51.2-51.2-51.2h-597.333c-25.6 0-51.2 21.333-51.2 51.2v341.333c0 29.867 21.333 51.2 51.2 51.2zM887.467 567.467v51.2c0 64-51.2 119.467-119.467 119.467h-597.333c-64 0-119.467-55.467-119.467-119.467v-341.333c0-64 51.2-119.467 119.467-119.467h597.333c64 0 119.467 51.2 119.467 119.467v51.2h51.2c17.067 0 34.133 12.8 34.133 34.133v170.667c0 17.067-12.8 34.133-34.133 34.133h-51.2zM887.467 499.2h21.333v-106.667h-21.333v106.667zM298.667 567.467c-17.067 0-34.133-17.067-34.133-34.133v-170.667c0-17.067 12.8-34.133 34.133-34.133s34.133 17.067 34.133 34.133v170.667c0 21.333-17.067 34.133-34.133 34.133z" />
<glyph unicode="&#xe917;" glyph-name="battery-2" d="M119.467 618.667v-341.333c0-25.6 21.333-51.2 51.2-51.2h597.333c25.6 0 51.2 21.333 51.2 51.2v341.333c0 25.6-21.333 51.2-51.2 51.2h-597.333c-25.6 0-51.2-21.333-51.2-51.2zM887.467 328.533v-51.2c0-64-51.2-119.467-119.467-119.467h-597.333c-64 0-119.467 51.2-119.467 119.467v341.333c0 64 51.2 119.467 119.467 119.467h597.333c64 0 119.467-51.2 119.467-119.467v-51.2h51.2c17.067 0 34.133-12.8 34.133-34.133v-170.667c0-17.067-12.8-34.133-34.133-34.133h-51.2zM887.467 499.2v-106.667h21.333v106.667h-21.333zM332.8 533.333v-170.667c0-21.333-12.8-34.133-34.133-34.133s-34.133 17.067-34.133 34.133v170.667c0 17.067 12.8 34.133 34.133 34.133s34.133-17.067 34.133-34.133zM469.333 567.467c-17.067 0-34.133-17.067-34.133-34.133v-170.667c0-21.333 12.8-34.133 34.133-34.133s34.133 17.067 34.133 34.133v170.667c0 21.333-17.067 34.133-34.133 34.133z" />
<glyph unicode="&#xe918;" glyph-name="battery-3" d="M170.667 669.867h597.333c25.6 0 51.2-21.333 51.2-51.2v-341.333c0-25.6-21.333-51.2-51.2-51.2h-597.333c-25.6 0-51.2 21.333-51.2 51.2v341.333c0 29.867 21.333 51.2 51.2 51.2zM887.467 567.467v51.2c0 64-51.2 119.467-119.467 119.467h-597.333c-64 0-119.467-55.467-119.467-119.467v-341.333c0-64 51.2-119.467 119.467-119.467h597.333c64 0 119.467 51.2 119.467 119.467v51.2h51.2c17.067 0 34.133 12.8 34.133 34.133v170.667c0 17.067-12.8 34.133-34.133 34.133h-51.2zM887.467 499.2h21.333v-106.667h-21.333v106.667zM298.667 567.467c-17.067 0-34.133-17.067-34.133-34.133v-170.667c0-17.067 12.8-34.133 34.133-34.133s34.133 17.067 34.133 34.133v170.667c0 21.333-17.067 34.133-34.133 34.133zM503.467 533.333v-170.667c0-21.333-12.8-34.133-34.133-34.133s-34.133 17.067-34.133 34.133v170.667c0 21.333 12.8 34.133 34.133 34.133s34.133-17.067 34.133-34.133zM640 567.467c-17.067 0-34.133-17.067-34.133-34.133v-170.667c0-21.333 12.8-34.133 34.133-34.133s34.133 17.067 34.133 34.133v170.667c0 21.333-17.067 34.133-34.133 34.133z" />
<glyph unicode="&#xe919;" glyph-name="battery-charge" d="M529.067 729.6c-12.8 12.8-34.133 8.533-46.933-4.267l-17.067-29.867h-294.4c-29.867 0-59.733-12.8-81.067-38.4-21.333-21.333-34.133-51.2-34.133-81.067v-256c0-29.867 12.8-59.733 34.133-81.067s51.2-34.133 81.067-34.133h247.467l-21.333-38.4c-8.533-12.8 0-34.133 12.8-42.667s34.133-4.267 42.667 12.8l170.667 298.667c4.267 8.533 4.267 17.067 0 29.867s-12.8 17.067-25.6 17.067h-196.267l136.533 204.8c8.533 12.8 4.267 34.133-8.533 42.667zM541.867 413.867l-85.333-149.333h-285.867c-12.8 0-25.6 4.267-38.4 17.067-8.533 8.533-17.067 25.6-17.067 38.4v256c0 12.8 4.267 25.6 17.067 38.4 12.8 8.533 25.6 12.8 38.4 12.8h251.733l-110.933-162.133c-8.533-8.533-8.533-21.333 0-34.133 4.267-8.533 17.067-17.067 29.867-17.067h200.533zM682.667 691.2h89.6c29.867 0 59.733-12.8 81.067-34.133s34.133-51.2 34.133-81.067v-21.333h51.2c21.333 0 34.133-17.067 34.133-34.133v-170.667c0-21.333-17.067-34.133-34.133-34.133h-55.467v-8.533c0-29.867-12.8-59.733-34.133-81.067s-51.2-34.133-81.067-34.133h-85.333c-21.333 0-34.133 12.8-34.133 34.133s17.067 34.133 34.133 34.133h85.333c12.8 0 25.6 4.267 38.4 17.067s17.067 25.6 17.067 38.4v256c0 12.8-8.533 29.867-17.067 38.4-12.8 12.8-25.6 17.067-38.4 17.067h-85.333c-21.333 0-34.133 12.8-34.133 34.133s17.067 34.133 34.133 34.133zM887.467 499.2v-106.667h21.333v106.667h-21.333z" />
<glyph unicode="&#xe91a;" glyph-name="battery" d="M119.467 618.667v-341.333c0-25.6 21.333-51.2 51.2-51.2h597.333c25.6 0 51.2 21.333 51.2 51.2v341.333c0 25.6-21.333 51.2-51.2 51.2h-597.333c-25.6 0-51.2-21.333-51.2-51.2zM887.467 328.533v-51.2c0-64-51.2-119.467-119.467-119.467h-597.333c-64 0-119.467 51.2-119.467 119.467v341.333c0 64 51.2 119.467 119.467 119.467h597.333c64 0 119.467-51.2 119.467-119.467v-51.2h51.2c17.067 0 34.133-12.8 34.133-34.133v-170.667c0-17.067-12.8-34.133-34.133-34.133h-51.2zM887.467 499.2v-106.667h21.333v106.667h-21.333z" />
<glyph unicode="&#xe91b;" glyph-name="behance" d="M529.067 324.267c0 76.8-38.4 136.533-115.2 157.867 55.467 25.6 85.333 68.267 85.333 132.267 0 123.733-93.867 153.6-200.533 153.6h-298.667v-627.2h307.2c110.933 0 221.867 55.467 221.867 183.467zM136.533 661.333h128c51.2 0 93.867-12.8 93.867-72.533 0-51.2-34.133-76.8-85.333-76.8h-136.533v149.333zM136.533 247.467v174.933h149.333c59.733 0 98.133-25.6 98.133-89.6s-46.933-85.333-102.4-85.333h-145.067zM802.133 128c110.933 0 179.2 46.933 213.333 153.6h-110.933c-12.8-38.4-59.733-59.733-98.133-59.733-72.533 0-110.933 42.667-110.933 115.2h328.533c8.533 145.067-72.533 268.8-221.867 268.8-140.8 0-234.667-102.4-234.667-238.933 0-140.8 89.6-238.933 234.667-238.933zM797.867 512c64 0 93.867-38.4 98.133-98.133h-204.8c8.533 59.733 46.933 98.133 106.667 98.133zM669.867 733.867h256v-59.733h-256v59.733z" />
<glyph unicode="&#xe91c;" glyph-name="bell-minus" d="M640 567.467h-256c-17.067 0-34.133-12.8-34.133-34.133s12.8-34.133 34.133-34.133h256c17.067 0 34.133 12.8 34.133 34.133s-17.067 34.133-34.133 34.133zM640 567.467h-256c-17.067 0-34.133-12.8-34.133-34.133s12.8-34.133 34.133-34.133h256c17.067 0 34.133 12.8 34.133 34.133s-17.067 34.133-34.133 34.133zM640 567.467h-256c-17.067 0-34.133-12.8-34.133-34.133s12.8-34.133 34.133-34.133h256c17.067 0 34.133 12.8 34.133 34.133s-17.067 34.133-34.133 34.133zM896 349.867l-51.2 64c0 0 0 4.267 0 4.267v157.867c0 42.667-8.533 89.6-25.6 128-17.067 42.667-42.667 76.8-76.8 106.667-29.867 29.867-68.267 55.467-110.933 72.533s-85.333 25.6-128 21.333v0c-85.333-4.267-170.667-42.667-230.4-106.667s-93.867-145.067-93.867-234.667v-145.067c0 0 0-4.267-4.267-4.267l-46.933-64c-12.8-17.067-21.333-38.4-25.6-59.733s0-42.667 8.533-64c8.533-21.333 25.6-38.4 42.667-46.933 17.067-12.8 38.4-17.067 64-17.067h93.867c8.533-42.667 25.6-81.067 55.467-110.933 38.4-38.4 89.6-59.733 145.067-59.733s106.667 21.333 145.067 59.733c29.867 29.867 51.2 68.267 55.467 110.933h93.867c21.333 0 42.667 8.533 64 17.067 17.067 12.8 34.133 29.867 42.667 46.933 8.533 21.333 12.8 42.667 8.533 64s-12.8 42.667-25.6 59.733zM610.133 93.867c-25.6-25.6-59.733-42.667-98.133-42.667s-72.533 12.8-98.133 42.667c-17.067 17.067-29.867 42.667-38.4 64h268.8c-4.267-21.333-17.067-46.933-34.133-64zM853.333 256c-4.267-8.533-12.8-17.067-21.333-21.333s-17.067-8.533-29.867-8.533h-580.267c-8.533 0-21.333 4.267-29.867 8.533s-17.067 12.8-21.333 21.333c-4.267 8.533-4.267 17.067-4.267 29.867 0 8.533 4.267 21.333 12.8 25.6l51.2 64c8.533 12.8 17.067 29.867 17.067 46.933v140.8c0 72.533 25.6 140.8 72.533 192s115.2 85.333 183.467 85.333c34.133 0 72.533-4.267 106.667-17.067s64-34.133 89.6-55.467c25.6-25.6 46.933-55.467 59.733-85.333 12.8-34.133 21.333-68.267 21.333-102.4v-157.867c0-17.067 4.267-34.133 17.067-46.933l51.2-64c8.533-8.533 8.533-17.067 12.8-25.6-4.267-12.8-4.267-21.333-8.533-29.867z" />
<glyph unicode="&#xe91d;" glyph-name="bell-off" d="M106.667 896l682.667-682.667c0 0 0 0 0 0l170.667-170.667c12.8-12.8 12.8-34.133 0-46.933s-34.133-12.8-46.933 0l-162.133 162.133h-42.667c-4.267-42.667-25.6-81.067-55.467-110.933-38.4-38.4-89.6-59.733-145.067-59.733s-106.667 21.333-145.067 59.733c-29.867 29.867-46.933 68.267-55.467 110.933h-102.4c-4.267 0-4.267 0-8.533 0l-12.8 4.267c-4.267 4.267-12.8 4.267-17.067 8.533 0 0 0 0 0 0l-8.533 4.267c0 4.267-4.267 4.267-4.267 4.267l-8.533 8.533c-4.267 4.267-4.267 4.267-4.267 4.267v0 0c0 0-4.267 4.267-8.533 8.533v0c-4.267 4.267-4.267 8.533-8.533 12.8s-4.267 8.533-8.533 12.8v0c0 4.267-4.267 8.533-4.267 12.8v0c0 4.267-4.267 8.533-4.267 12.8s0 4.267 0 4.267c0 4.267 0 12.8 0 17.067 0 0 0 4.267 0 8.533 0 8.533 0 12.8 0 17.067 0 0 0 4.267 0 4.267 0 4.267 0 12.8 4.267 17.067s4.267 12.8 8.533 17.067c0 4.267 4.267 8.533 8.533 12.8l4.267 4.267c0 0 0 0 0 0l4.267 4.267v4.267c0 0 0 0 0 0v0c0 0 0 0 0 0 0 4.267 4.267 4.267 4.267 8.533l4.267 4.267c0 0 4.267 4.267 4.267 4.267l4.267 4.267c0 0 0 0 0 0l12.8 12.8 4.267 8.533v187.733c0 12.8 4.267 25.6 4.267 29.867v0c0 0 0 4.267 0 4.267 4.267 12.8 8.533 25.6 8.533 34.133v0c4.267 8.533 8.533 21.333 12.8 29.867 0 8.533 4.267 12.8 4.267 17.067l-140.8 140.8c-12.8 12.8-12.8 34.133 0 46.933s34.133 12.8 46.933 0zM691.2 226.133l-439.467 435.2c0-4.267-4.267-12.8-4.267-17.067-4.267-8.533-4.267-17.067-8.533-25.6 0-4.267 0-8.533 0-8.533v0c0-4.267 0-8.533 0-12.8v-200.533c0-8.533 0-12.8-4.267-17.067l-4.267-4.267c0 0 0 0-4.267-4.267l-4.267-4.267-4.267-8.533-8.533-8.533c0 0 0 0 0 0l-8.533-8.533c0 0 0-4.267-4.267-4.267 0-4.267-4.267-8.533-8.533-12.8v0 0-4.267c0 0 0 0-4.267-4.267l-8.533-8.533c0 0-4.267-4.267-4.267-4.267s0 0 0 0c0-4.267 0-4.267 0-8.533 0 0 0 0 0 0s0-4.267 0-4.267c0 0 0 0 0-4.267 0 0 0-4.267 0-4.267 0-4.267 0-4.267 0-8.533 0 0 0-4.267 0-4.267s0 0 0-4.267 0-4.267 0-8.533 0-4.267 4.267-8.533c0 0 0-4.267 4.267-4.267 0 0 0 0 0 0s4.267-4.267 4.267-4.267v0 0c0 0 0 0 0 0v0 0 0l4.267-4.267 8.533-4.267c0 0 4.267 0 4.267 0h490.667zM503.467 840.533c-8.533 0-17.067 0-25.6 0s-17.067-4.267-25.6-4.267c-8.533-4.267-17.067-4.267-25.6-8.533 0 0 0 0 0 0-8.533-4.267-17.067-8.533-25.6-12.8v0c-4.267 0-8.533-4.267-17.067-8.533v0 0c0 0-4.267-4.267-4.267-4.267-12.8-8.533-34.133-4.267-42.667 12.8s-4.267 38.4 12.8 42.667c0 4.267 4.267 4.267 4.267 4.267v0c4.267 4.267 12.8 8.533 21.333 12.8s17.067 8.533 29.867 12.8c8.533 4.267 21.333 4.267 29.867 0v0c12.8 4.267 25.6 8.533 34.133 8.533 12.8 4.267 25.6 4.267 34.133 4.267s17.067 0 25.6 0c4.267 0 4.267 0 8.533 0v0c8.533 0 25.6 0 38.4-4.267 8.533-4.267 21.333-4.267 29.867-8.533 8.533 0 21.333-4.267 29.867-8.533s21.333-8.533 29.867-12.8c12.8-4.267 21.333-12.8 29.867-17.067s17.067-12.8 25.6-17.067c8.533-4.267 17.067-12.8 25.6-21.333 8.533-4.267 12.8-12.8 21.333-21.333s12.8-12.8 17.067-21.333v0 0 0c4.267 0 4.267-4.267 4.267-4.267 8.533-12.8 12.8-21.333 17.067-29.867s8.533-21.333 12.8-29.867c4.267-8.533 8.533-21.333 12.8-29.867s4.267-21.333 8.533-29.867c0-12.8 4.267-21.333 4.267-34.133s0-21.333 0-34.133v-166.4c0-21.333-17.067-34.133-34.133-34.133-21.333 0-34.133 17.067-34.133 34.133v170.667c0 8.533 0 17.067 0 25.6v0c0 8.533-4.267 17.067-4.267 25.6v0c-4.267 8.533-4.267 17.067-8.533 25.6 0 8.533-4.267 17.067-8.533 25.6v0c-4.267 4.267-4.267 12.8-8.533 17.067-4.267 0-4.267 4.267-4.267 4.267s0 0 0 0c-4.267 8.533-8.533 17.067-12.8 21.333-4.267 0-4.267 4.267-4.267 4.267v0 0 0 0c-4.267 8.533-8.533 12.8-12.8 17.067-4.267 8.533-12.8 17.067-17.067 21.333s-8.533 12.8-17.067 17.067c-8.533 8.533-12.8 12.8-21.333 17.067v0c-4.267 4.267-12.8 8.533-21.333 12.8v0c-8.533 4.267-17.067 8.533-25.6 12.8v0c-8.533 4.267-17.067 4.267-25.6 8.533 0 0 0 0 0 0-8.533 0-17.067 4.267-25.6 4.267-4.267 0-4.267 0-8.533 0 0 0-4.267 0-17.067 0-4.267 0-8.533 0-12.8 0s-12.8 0-17.067 0zM413.867 93.867c25.6-25.6 55.467-42.667 93.867-42.667s72.533 17.067 98.133 42.667c21.333 17.067 34.133 38.4 38.4 64h-268.8c8.533-21.333 21.333-46.933 38.4-64z" />
<glyph unicode="&#xe91e;" glyph-name="bell-plus" d="M640 567.467h-93.867v93.867c0 17.067-12.8 34.133-34.133 34.133s-34.133-17.067-34.133-34.133v-93.867h-93.867c-17.067 0-34.133-12.8-34.133-34.133s12.8-34.133 34.133-34.133h93.867v-93.867c0-17.067 12.8-34.133 34.133-34.133s34.133 12.8 34.133 34.133v93.867h93.867c17.067 0 34.133 12.8 34.133 34.133s-17.067 34.133-34.133 34.133zM640 567.467h-93.867v93.867c0 17.067-12.8 34.133-34.133 34.133s-34.133-17.067-34.133-34.133v-93.867h-93.867c-17.067 0-34.133-12.8-34.133-34.133s12.8-34.133 34.133-34.133h93.867v-93.867c0-17.067 12.8-34.133 34.133-34.133s34.133 12.8 34.133 34.133v93.867h93.867c17.067 0 34.133 12.8 34.133 34.133s-17.067 34.133-34.133 34.133zM640 567.467h-93.867v93.867c0 17.067-12.8 34.133-34.133 34.133s-34.133-17.067-34.133-34.133v-93.867h-93.867c-17.067 0-34.133-12.8-34.133-34.133s12.8-34.133 34.133-34.133h93.867v-93.867c0-17.067 12.8-34.133 34.133-34.133s34.133 12.8 34.133 34.133v93.867h93.867c17.067 0 34.133 12.8 34.133 34.133s-17.067 34.133-34.133 34.133zM896 349.867l-51.2 64c0 0 0 4.267 0 4.267v157.867c0 42.667-8.533 89.6-25.6 128-17.067 42.667-42.667 76.8-76.8 106.667-29.867 29.867-68.267 55.467-110.933 72.533s-85.333 25.6-128 21.333v0c-85.333-4.267-170.667-42.667-230.4-106.667s-93.867-145.067-93.867-234.667v-145.067c0 0 0-4.267-4.267-4.267l-46.933-64c-12.8-17.067-21.333-38.4-25.6-59.733s0-42.667 8.533-64c8.533-21.333 25.6-38.4 42.667-46.933 17.067-12.8 38.4-17.067 64-17.067h93.867c8.533-42.667 25.6-81.067 55.467-110.933 38.4-38.4 89.6-59.733 145.067-59.733s106.667 21.333 145.067 59.733c29.867 29.867 51.2 68.267 55.467 110.933h93.867c21.333 0 42.667 8.533 64 17.067 17.067 12.8 34.133 29.867 42.667 46.933 8.533 21.333 12.8 42.667 8.533 64s-12.8 42.667-25.6 59.733zM610.133 93.867c-25.6-25.6-59.733-42.667-98.133-42.667s-72.533 12.8-98.133 42.667c-17.067 17.067-29.867 42.667-38.4 64h268.8c-4.267-21.333-17.067-46.933-34.133-64zM853.333 256c-4.267-8.533-12.8-17.067-21.333-21.333s-17.067-8.533-29.867-8.533h-580.267c-8.533 0-21.333 4.267-29.867 8.533s-17.067 12.8-21.333 21.333c-4.267 8.533-4.267 17.067-4.267 29.867 0 8.533 4.267 21.333 12.8 25.6l51.2 64c8.533 12.8 17.067 29.867 17.067 46.933v140.8c0 72.533 25.6 140.8 72.533 192s115.2 85.333 183.467 85.333c34.133 0 72.533-4.267 106.667-17.067s64-34.133 89.6-55.467c25.6-25.6 46.933-55.467 59.733-85.333 12.8-34.133 21.333-68.267 21.333-102.4v-157.867c0-17.067 4.267-34.133 17.067-46.933l51.2-64c8.533-8.533 8.533-17.067 12.8-25.6-4.267-12.8-4.267-21.333-8.533-29.867z" />
<glyph unicode="&#xe91f;" glyph-name="bell" d="M896 349.867l-51.2 64c0 0 0 4.267 0 4.267v157.867c0 42.667-8.533 89.6-25.6 128-17.067 42.667-42.667 76.8-76.8 106.667-29.867 29.867-68.267 55.467-110.933 72.533s-85.333 25.6-128 21.333v0c-85.333-4.267-170.667-42.667-230.4-106.667s-93.867-145.067-93.867-234.667v-145.067c0 0 0-4.267-4.267-4.267l-46.933-64c-12.8-17.067-21.333-38.4-25.6-59.733s0-42.667 8.533-64c8.533-21.333 25.6-38.4 42.667-46.933 17.067-12.8 38.4-17.067 64-17.067h93.867c8.533-42.667 25.6-81.067 55.467-110.933 38.4-38.4 89.6-59.733 145.067-59.733s106.667 21.333 145.067 59.733c29.867 29.867 51.2 68.267 55.467 110.933h93.867c21.333 0 42.667 8.533 64 17.067 17.067 12.8 34.133 29.867 42.667 46.933 8.533 21.333 12.8 42.667 8.533 64s-12.8 42.667-25.6 59.733zM610.133 93.867c-25.6-25.6-59.733-42.667-98.133-42.667s-72.533 12.8-98.133 42.667c-17.067 17.067-29.867 42.667-38.4 64h268.8c-4.267-21.333-17.067-46.933-34.133-64zM853.333 256c-4.267-8.533-12.8-17.067-21.333-21.333s-17.067-8.533-29.867-8.533h-580.267c-8.533 0-21.333 4.267-29.867 8.533s-17.067 12.8-21.333 21.333c-4.267 8.533-4.267 17.067-4.267 29.867 0 8.533 4.267 21.333 12.8 25.6l51.2 64c8.533 12.8 17.067 29.867 17.067 46.933v140.8c0 72.533 25.6 140.8 72.533 192s115.2 85.333 183.467 85.333c34.133 0 72.533-4.267 106.667-17.067s64-34.133 89.6-55.467c25.6-25.6 46.933-55.467 59.733-85.333 12.8-34.133 21.333-68.267 21.333-102.4v-157.867c0-17.067 4.267-34.133 17.067-46.933l51.2-64c8.533-8.533 8.533-17.067 12.8-25.6-4.267-12.8-4.267-21.333-8.533-29.867z" />
<glyph unicode="&#xe920;" glyph-name="blogger" d="M294.4 25.6c29.867-4.267 375.467-8.533 413.867 0 59.733 8.533 110.933 34.133 157.867 76.8 34.133 34.133 51.2 72.533 68.267 119.467 8.533 29.867 8.533 273.067 4.267 285.867v0c-4.267 12.8-12.8 29.867-25.6 34.133-4.267 4.267-25.6 4.267-46.933 4.267-38.4 0-42.667 4.267-51.2 8.533-17.067 12.8-25.6 25.6-25.6 55.467 0 64-25.6 119.467-76.8 174.933-34.133 38.4-76.8 64-123.733 76.8-17.067 8.533-42.667 12.8-128 12.8-128 0-157.867 0-204.8-17.067-81.067-34.133-140.8-102.4-162.133-192-4.267-17.067-8.533-46.933-8.533-200.533 0-192 0-221.867 8.533-260.267 34.133-93.867 119.467-162.133 200.533-179.2zM695.467 328.533c21.333-21.333 17.067-59.733-8.533-76.8v0l-29.867-4.267c-81.067 0-302.933-8.533-320 4.267-12.8 8.533-25.6 21.333-29.867 34.133s4.267 34.133 12.8 42.667c12.8 8.533 21.333 8.533 187.733 8.533 174.933 4.267 174.933 4.267 187.733-8.533zM324.267 631.467v0c12.8 17.067 17.067 17.067 110.933 17.067 85.333 0 85.333 0 98.133-8.533 17.067-8.533 25.6-21.333 25.6-42.667 0-17.067-8.533-34.133-25.6-42.667-8.533 0-12.8 0-93.867-4.267-51.2 0-89.6 4.267-98.133 4.267-34.133 12.8-42.667 55.467-17.067 76.8z" />
<glyph unicode="&#xe921;" glyph-name="bluetooth" d="M516.267 768c0 0-4.267 0-4.267 0s-4.267 0-4.267 0c0 0-4.267-4.267-4.267-4.267s0-4.267 0-4.267v-268.8l226.133 140.8c0 0 4.267 4.267 4.267 4.267s0 4.267 0 4.267 0 4.267 0 4.267-4.267 4.267-4.267 4.267l-213.333 119.467c0 0 0 0 0 0zM439.467 520.533v238.933c0 12.8 4.267 25.6 8.533 38.4 8.533 12.8 17.067 21.333 25.6 25.6 12.8 8.533 25.6 8.533 38.4 8.533s25.6-4.267 38.4-8.533v0l213.333-119.467c12.8-8.533 21.333-17.067 25.6-25.6 8.533-12.8 8.533-25.6 8.533-38.4s-4.267-25.6-8.533-38.4c-8.533-12.8-17.067-21.333-25.6-25.6l-209.067-128 209.067-128c12.8-8.533 21.333-17.067 25.6-25.6 8.533-12.8 8.533-25.6 8.533-38.4s-4.267-25.6-8.533-38.4-17.067-21.333-25.6-25.6v0l-213.333-119.467c-12.8-8.533-25.6-12.8-38.4-12.8s-25.6 4.267-38.4 8.533c-12.8 8.533-21.333 17.067-29.867 29.867s-8.533 25.6-8.533 38.4v238.933l-209.067-128c-17.067-8.533-34.133-4.267-42.667 12.8s-4.267 34.133 12.8 42.667l234.667 145.067-234.667 145.067c-12.8 8.533-21.333 25.6-8.533 42.667 8.533 17.067 29.867 21.333 42.667 12.8l209.067-128zM503.467 405.333v-268.8c0 0 0 0 0 0s0-4.267 0-4.267c0 0 4.267-4.267 4.267-4.267s4.267 0 4.267 0c0 0 4.267 0 4.267 0s0 0 0 0l213.333 119.467c0 0 4.267 4.267 4.267 4.267s0 4.267 0 4.267c0 0 0 4.267 0 4.267s-4.267 4.267-4.267 4.267v0l-226.133 140.8z" />
<glyph unicode="&#xe922;" glyph-name="book" d="M183.467 819.2c12.8 17.067 29.867 21.333 51.2 21.333h576c12.8 0 25.6-4.267 38.4-17.067 8.533-8.533 17.067-25.6 17.067-38.4v-520.533h-631.467c-25.6 0-51.2-8.533-76.8-21.333v524.8c4.267 21.333 8.533 38.4 25.6 51.2zM162.133 128c0 21.333 4.267 38.4 21.333 55.467 12.8 12.8 29.867 21.333 51.2 21.333h631.467v-93.867c0-12.8-4.267-25.6-17.067-38.4s-25.6-17.067-38.4-17.067h-576c-17.067 0-38.4 8.533-51.2 21.333s-21.333 29.867-21.333 51.2zM930.133 234.667v554.667c0 29.867-12.8 59.733-34.133 81.067s-51.2 34.133-81.067 34.133h-580.267c-38.4 0-72.533-12.8-98.133-42.667-25.6-25.6-42.667-59.733-42.667-98.133v-640c0-38.4 12.8-72.533 42.667-98.133 25.6-25.6 59.733-42.667 98.133-42.667h576c29.867 0 59.733 12.8 81.067 34.133s34.133 51.2 34.133 81.067v136.533z" />
<glyph unicode="&#xe923;" glyph-name="bookmark-minus" d="M217.6 827.733c12.8 8.533 25.6 12.8 38.4 12.8h512c12.8 0 25.6-4.267 38.4-17.067 8.533-8.533 17.067-25.6 17.067-38.4v-682.667c0 0 0-4.267 0-4.267s-4.267-4.267-4.267-4.267-4.267 0-4.267 0c0 0-4.267 0-4.267 0l-273.067 204.8c-12.8 8.533-25.6 8.533-38.4 0l-273.067-204.8c0 0-4.267 0-4.267 0s-4.267 0-4.267 0c0 0-4.267 4.267-4.267 4.267s0 4.267 0 4.267v686.933c-8.533 12.8-4.267 25.6 4.267 38.4zM256 908.8c-29.867 0-59.733-12.8-81.067-34.133-25.6-25.6-38.4-55.467-38.4-85.333v-682.667c0-12.8 4.267-25.6 12.8-38.4s17.067-21.333 29.867-25.6c12.8-4.267 25.6-8.533 38.4-8.533s25.6 4.267 38.4 12.8l251.733 192 256-192c12.8-8.533 25.6-12.8 38.4-12.8s25.6 0 38.4 8.533c12.8 4.267 21.333 17.067 29.867 25.6 8.533 12.8 12.8 25.6 12.8 38.4v682.667c0 29.867-12.8 59.733-34.133 81.067s-51.2 34.133-81.067 34.133h-512zM384 610.133c-17.067 0-34.133-17.067-34.133-34.133s17.067-34.133 34.133-34.133h256c17.067 0 34.133 12.8 34.133 34.133s-17.067 34.133-34.133 34.133h-256z" />
<glyph unicode="&#xe924;" glyph-name="bookmark-plus" d="M256 840.533c-12.8 0-25.6-4.267-38.4-17.067-8.533-8.533-12.8-21.333-12.8-34.133v-682.667c0 0 0-4.267 0-4.267s4.267-4.267 4.267-4.267c0 0 4.267 0 4.267 0s4.267 0 4.267 0l273.067 204.8c12.8 8.533 25.6 8.533 38.4 0l273.067-204.8c0 0 4.267 0 4.267 0s4.267 0 4.267 0 4.267 4.267 4.267 4.267c0 0 0 4.267 0 4.267v682.667c0 12.8-4.267 25.6-17.067 38.4-8.533 8.533-25.6 17.067-38.4 17.067h-503.467zM174.933 870.4c21.333 25.6 51.2 38.4 81.067 38.4h512c29.867 0 59.733-12.8 81.067-34.133s34.133-51.2 34.133-81.067v-682.667c0-12.8-4.267-25.6-12.8-38.4s-17.067-21.333-29.867-25.6c-12.8-4.267-25.6-8.533-38.4-8.533s-25.6 4.267-38.4 12.8l-256 192-251.733-192c-12.8-8.533-25.6-12.8-38.4-12.8s-25.6 0-38.4 8.533c-12.8 4.267-21.333 17.067-29.867 25.6-8.533 12.8-12.8 25.6-12.8 38.4v678.4c0 29.867 12.8 59.733 38.4 81.067zM512 738.133c17.067 0 34.133-12.8 34.133-34.133v-93.867h93.867c17.067 0 34.133-12.8 34.133-34.133s-17.067-34.133-34.133-34.133h-93.867v-93.867c0-17.067-12.8-34.133-34.133-34.133s-34.133 12.8-34.133 34.133v93.867h-93.867c-17.067 0-34.133 17.067-34.133 34.133s17.067 34.133 34.133 34.133h93.867v93.867c0 17.067 17.067 34.133 34.133 34.133z" />
<glyph unicode="&#xe925;" glyph-name="bookmark" d="M256 840.533c-12.8 0-25.6-4.267-38.4-17.067-8.533-8.533-12.8-21.333-12.8-34.133v-682.667c0 0 0-4.267 0-4.267s4.267-4.267 4.267-4.267c0 0 4.267 0 4.267 0s4.267 0 4.267 0l273.067 204.8c12.8 8.533 25.6 8.533 38.4 0l273.067-204.8c0 0 4.267 0 4.267 0s4.267 0 4.267 0 4.267 4.267 4.267 4.267c0 0 0 4.267 0 4.267v682.667c0 12.8-4.267 25.6-17.067 38.4-8.533 8.533-25.6 17.067-38.4 17.067h-503.467zM174.933 870.4c21.333 25.6 51.2 38.4 81.067 38.4h512c29.867 0 59.733-12.8 81.067-34.133s34.133-51.2 34.133-81.067v-682.667c0-12.8-4.267-25.6-12.8-38.4s-17.067-21.333-29.867-25.6c-12.8-4.267-25.6-8.533-38.4-8.533s-25.6 4.267-38.4 12.8l-256 192-251.733-192c-12.8-8.533-25.6-12.8-38.4-12.8s-25.6 0-38.4 8.533c-12.8 4.267-21.333 17.067-29.867 25.6-8.533 12.8-12.8 25.6-12.8 38.4v678.4c0 29.867 12.8 59.733 38.4 81.067z" />
<glyph unicode="&#xe926;" glyph-name="box" d="M494.933 900.267c12.8 8.533 25.6 8.533 34.133 0l384-256c4.267-4.267 8.533-4.267 8.533-8.533 4.267-4.267 4.267-12.8 4.267-17.067v-341.333c0-12.8-4.267-21.333-12.8-25.6l-384-256c-4.267-4.267-8.533-4.267-17.067-4.267 0 0-4.267 0-4.267 0-4.267 0-8.533 4.267-12.8 4.267l-384 256c-8.533 4.267-12.8 17.067-12.8 25.6v341.333c0 4.267 0 8.533 4.267 17.067 0 0 0 4.267 4.267 4.267 4.267 4.267 4.267 4.267 8.533 8.533l379.733 251.733zM836.267 618.667l-324.267 217.6-324.267-217.6 324.267-217.6 324.267 217.6zM546.133 345.6v-264.533l320 213.333v264.533l-320-213.333zM162.133 294.4l320-213.333v264.533l-320 213.333v-264.533z" />
<glyph unicode="&#xe927;" glyph-name="briefcase-plus" d="M853.333 699.733h-98.133v93.867c0 29.867-12.8 59.733-34.133 81.067s-51.2 34.133-81.067 34.133h-256c-29.867 0-59.733-12.8-85.333-38.4-21.333-21.333-34.133-51.2-34.133-81.067v-93.867h-93.867c-68.267 0-119.467-55.467-119.467-119.467v-422.4c0-68.267 55.467-119.467 119.467-119.467h682.667c68.267 0 119.467 55.467 119.467 119.467v426.667c0 68.267-55.467 119.467-119.467 119.467zM332.8 789.333c0 12.8 4.267 25.6 12.8 38.4 12.8 8.533 25.6 12.8 38.4 12.8h256c12.8 0 25.6-4.267 38.4-17.067 8.533-8.533 17.067-25.6 17.067-38.4v-93.867h-362.667v98.133zM904.533 149.333c0-29.867-21.333-46.933-46.933-51.2v-4.267h-686.933c-29.867 0-51.2 25.6-51.2 51.2v430.933c0 29.867 25.6 51.2 51.2 51.2h682.667c29.867 0 51.2-25.6 51.2-51.2v-426.667zM640 396.8h-93.867v93.867c0 17.067-12.8 34.133-34.133 34.133s-34.133-12.8-34.133-34.133v-93.867h-93.867c-17.067 0-34.133-12.8-34.133-34.133s12.8-34.133 34.133-34.133h93.867v-93.867c0-17.067 12.8-34.133 34.133-34.133s34.133 12.8 34.133 34.133v93.867h93.867c17.067 0 34.133 12.8 34.133 34.133s-12.8 34.133-34.133 34.133z" />
<glyph unicode="&#xe928;" glyph-name="briefcase" d="M853.333 699.733h-98.133v93.867c0 29.867-12.8 59.733-34.133 81.067s-51.2 34.133-81.067 34.133h-256c-29.867 0-59.733-12.8-85.333-38.4-21.333-21.333-34.133-51.2-34.133-81.067v-93.867h-93.867c-68.267 0-119.467-55.467-119.467-119.467v-422.4c0-68.267 55.467-119.467 119.467-119.467h682.667c68.267 0 119.467 55.467 119.467 119.467v426.667c0 68.267-55.467 119.467-119.467 119.467zM264.533 93.867h-93.867c-29.867 0-51.2 25.6-51.2 51.2v430.933c0 29.867 25.6 51.2 51.2 51.2h93.867v-533.333zM695.467 93.867h-362.667v533.333h362.667v-533.333zM695.467 691.2h-362.667v98.133c0 12.8 4.267 25.6 12.8 38.4 12.8 8.533 25.6 12.8 38.4 12.8h256c12.8 0 25.6-4.267 38.4-17.067 8.533-8.533 17.067-25.6 17.067-38.4v-93.867zM904.533 149.333c0-29.867-25.6-51.2-51.2-51.2h-93.867v529.067h93.867c29.867 0 51.2-25.6 51.2-51.2v-426.667z" />
<glyph unicode="&#xe929;" glyph-name="bulb" d="M503.467 844.8c46.933 0 93.867-12.8 136.533-34.133s76.8-55.467 102.4-98.133c25.6-42.667 38.4-89.6 38.4-136.533 0-51.2-12.8-98.133-42.667-140.8-25.6-42.667-64-76.8-110.933-98.133-12.8-4.267-17.067-17.067-17.067-29.867v-81.067h-192v81.067c0 12.8-8.533 25.6-17.067 29.867-42.667 21.333-81.067 51.2-106.667 89.6s-42.667 85.333-46.933 132.267c-4.267 46.933 4.267 98.133 25.6 140.8s55.467 76.8 93.867 102.4c42.667 25.6 89.6 38.4 136.533 42.667zM669.867 866.133c-51.2 29.867-110.933 42.667-170.667 42.667s-115.2-21.333-162.133-51.2c-51.2-29.867-89.6-76.8-119.467-128-25.6-51.2-38.4-110.933-34.133-170.667s21.333-115.2 55.467-166.4c29.867-42.667 68.267-81.067 115.2-102.4v-98.133c0-17.067 12.8-34.133 34.133-34.133h256c17.067 0 34.133 12.8 34.133 34.133v93.867c46.933 25.6 89.6 64 119.467 110.933 34.133 51.2 51.2 115.2 51.2 174.933s-17.067 115.2-46.933 166.4-76.8 98.133-132.267 128zM384 55.467c-17.067 0-34.133-12.8-34.133-34.133s12.8-34.133 34.133-34.133h256c17.067 0 34.133 12.8 34.133 34.133s-12.8 34.133-34.133 34.133h-256z" />
<glyph unicode="&#xe92a;" glyph-name="calendar-check" d="M332.8 874.667v-51.2h358.4v51.2c0 17.067 12.8 34.133 34.133 34.133s34.133-17.067 34.133-34.133v-51.2h93.867c68.267 0 119.467-55.467 119.467-119.467v-597.333c0-68.267-55.467-119.467-119.467-119.467h-682.667c-68.267 0-119.467 55.467-119.467 119.467v597.333c0 64 55.467 119.467 119.467 119.467h93.867v51.2c0 17.067 12.8 34.133 34.133 34.133s34.133-17.067 34.133-34.133zM691.2 704v51.2h-358.4v-51.2c0-17.067-12.8-34.133-34.133-34.133s-34.133 17.067-34.133 34.133v51.2h-93.867c-29.867 0-51.2-21.333-51.2-51.2v-597.333c0-29.867 25.6-51.2 51.2-51.2h682.667c29.867 0 51.2 25.6 51.2 51.2v597.333c0 29.867-25.6 51.2-51.2 51.2h-93.867v-51.2c0-17.067-12.8-34.133-34.133-34.133s-34.133 17.067-34.133 34.133zM704 465.067l-260.267-238.933c-8.533-4.267-17.067-8.533-25.6-8.533s-17.067 4.267-21.333 12.8l-106.667 128c-12.8 17.067-8.533 34.133 4.267 46.933 17.067 12.8 34.133 8.533 46.933-4.267l85.333-102.4 230.4 213.333c12.8 12.8 34.133 12.8 46.933 0s12.8-34.133 0-46.933z" />
<glyph unicode="&#xe92b;" glyph-name="calendar-minus" d="M332.8 874.667v-51.2h358.4v51.2c0 17.067 12.8 34.133 34.133 34.133s34.133-17.067 34.133-34.133v-51.2h93.867c68.267 0 119.467-55.467 119.467-119.467v-597.333c0-68.267-55.467-119.467-119.467-119.467h-682.667c-68.267 0-119.467 55.467-119.467 119.467v597.333c0 64 55.467 119.467 119.467 119.467h93.867v51.2c0 17.067 12.8 34.133 34.133 34.133s34.133-17.067 34.133-34.133zM691.2 704v51.2h-358.4v-51.2c0-17.067-12.8-34.133-34.133-34.133s-34.133 17.067-34.133 34.133v51.2h-93.867c-29.867 0-51.2-21.333-51.2-51.2v-597.333c0-29.867 25.6-51.2 51.2-51.2h682.667c29.867 0 51.2 25.6 51.2 51.2v597.333c0 29.867-25.6 51.2-51.2 51.2h-93.867v-51.2c0-17.067-12.8-34.133-34.133-34.133s-34.133 17.067-34.133 34.133zM341.333 439.467h341.333c21.333 0 34.133-12.8 34.133-34.133s-17.067-34.133-34.133-34.133h-341.333c-21.333 0-34.133 12.8-34.133 34.133s17.067 34.133 34.133 34.133z" />
<glyph unicode="&#xe92c;" glyph-name="calendar-plus" d="M298.667 908.8c-17.067 0-34.133-17.067-34.133-34.133v-51.2h-93.867c-68.267 0-119.467-55.467-119.467-119.467v-597.333c0-68.267 55.467-119.467 119.467-119.467h682.667c68.267 0 119.467 55.467 119.467 119.467v597.333c0 68.267-55.467 119.467-119.467 119.467h-89.6v51.2c0 21.333-12.8 34.133-34.133 34.133s-34.133-17.067-34.133-34.133v-51.2h-362.667v51.2c0 21.333-17.067 34.133-34.133 34.133zM691.2 755.2v-51.2c0-17.067 12.8-34.133 34.133-34.133s34.133 12.8 34.133 34.133v51.2h93.867c29.867 0 51.2-25.6 51.2-51.2v-597.333c0-29.867-25.6-51.2-51.2-51.2h-682.667c-29.867 0-51.2 25.6-51.2 51.2v597.333c0 29.867 25.6 51.2 51.2 51.2h93.867v-51.2c0-17.067 12.8-34.133 34.133-34.133s34.133 17.067 34.133 34.133v51.2h358.4zM307.2 405.333c0-17.067 17.067-34.133 34.133-34.133h136.533v-136.533c0-21.333 12.8-34.133 34.133-34.133s34.133 17.067 34.133 34.133v136.533h136.533c21.333 0 34.133 12.8 34.133 34.133s-17.067 34.133-34.133 34.133h-136.533v136.533c0 21.333-12.8 34.133-34.133 34.133s-34.133-17.067-34.133-34.133v-136.533h-136.533c-21.333 0-34.133-17.067-34.133-34.133z" />
<glyph unicode="&#xe92d;" glyph-name="calendar-x" d="M298.667 908.8c-17.067 0-34.133-17.067-34.133-34.133v-51.2h-93.867c-68.267 0-119.467-55.467-119.467-119.467v-597.333c0-68.267 55.467-119.467 119.467-119.467h682.667c68.267 0 119.467 55.467 119.467 119.467v597.333c0 68.267-55.467 119.467-119.467 119.467h-89.6v51.2c0 21.333-12.8 34.133-34.133 34.133s-34.133-17.067-34.133-34.133v-51.2h-362.667v51.2c0 21.333-17.067 34.133-34.133 34.133zM691.2 755.2v-51.2c0-17.067 12.8-34.133 34.133-34.133s34.133 12.8 34.133 34.133v51.2h93.867c29.867 0 51.2-25.6 51.2-51.2v-597.333c0-29.867-25.6-51.2-51.2-51.2h-682.667c-29.867 0-51.2 25.6-51.2 51.2v597.333c0 29.867 25.6 51.2 51.2 51.2h93.867v-51.2c0-17.067 12.8-34.133 34.133-34.133s34.133 17.067 34.133 34.133v51.2h358.4zM362.667 512c-12.8-12.8-12.8-29.867-4.267-42.667l106.667-106.667-106.667-106.667c-12.8-12.8-12.8-34.133 0-46.933s34.133-12.8 46.933 0l106.667 106.667 106.667-106.667c12.8-12.8 34.133-12.8 46.933 0s12.8 34.133 0 46.933l-106.667 106.667 110.933 102.4c12.8 12.8 12.8 34.133 0 46.933s-34.133 12.8-46.933 0l-106.667-106.667-106.667 106.667c-12.8 12.8-34.133 12.8-46.933 0z" />
<glyph unicode="&#xe92e;" glyph-name="calendar" d="M298.667 908.8c-17.067 0-34.133-17.067-34.133-34.133v-51.2h-93.867c-68.267 0-119.467-55.467-119.467-119.467v-597.333c0-68.267 55.467-119.467 119.467-119.467h682.667c68.267 0 119.467 55.467 119.467 119.467v597.333c0 68.267-55.467 119.467-119.467 119.467h-89.6v51.2c0 21.333-12.8 34.133-34.133 34.133s-34.133-17.067-34.133-34.133v-51.2h-362.667v51.2c0 21.333-17.067 34.133-34.133 34.133zM691.2 755.2v-51.2c0-17.067 12.8-34.133 34.133-34.133s34.133 12.8 34.133 34.133v51.2h93.867c29.867 0 51.2-25.6 51.2-51.2v-597.333c0-29.867-25.6-51.2-51.2-51.2h-682.667c-29.867 0-51.2 25.6-51.2 51.2v597.333c0 29.867 25.6 51.2 51.2 51.2h93.867v-51.2c0-17.067 12.8-34.133 34.133-34.133s34.133 17.067 34.133 34.133v51.2h358.4z" />
<glyph unicode="&#xe92f;" glyph-name="camera-off" d="M64 896c-12.8-12.8-12.8-29.867 0-42.667l115.2-115.2h-8.533c-29.867 0-59.733-12.8-81.067-38.4-21.333-21.333-34.133-51.2-34.133-81.067v-473.6c0-29.867 12.8-59.733 34.133-81.067s51.2-34.133 81.067-34.133h708.267l34.133-34.133c12.8-12.8 34.133-12.8 46.933 0s12.8 34.133 0 46.933l-277.333 277.333c-4.267 4.267-8.533 8.533-12.8 12.8 0 4.267-4.267 4.267-4.267 4.267l-221.867 221.867c0 0-4.267 4.267-4.267 4.267-4.267 8.533-8.533 8.533-12.8 12.8l-315.733 320c-12.8 12.8-34.133 12.8-46.933 0zM243.2 669.867l123.733-123.733c-8.533-8.533-17.067-17.067-21.333-29.867 0 0 0 0 0 0-8.533-8.533-12.8-21.333-17.067-34.133 0 0 0 0 0 0-4.267-12.8-8.533-25.6-12.8-38.4-4.267-25.6-4.267-55.467 0-81.067 4.267-12.8 8.533-25.6 12.8-38.4 0 0 0 0 0 0 4.267-12.8 12.8-21.333 17.067-34.133 0 0 0 0 0 0 12.8-21.333 34.133-38.4 55.467-55.467v0 0c8.533-8.533 21.333-12.8 34.133-17.067 0 0 0 0 0 0 12.8-4.267 25.6-8.533 38.4-12.8 25.6-4.267 55.467-4.267 81.067 0 12.8 4.267 25.6 8.533 38.4 12.8 0 0 0 0 0 0 12.8 4.267 21.333 12.8 34.133 17.067v0 0c8.533 8.533 21.333 12.8 29.867 21.333l166.4-166.4h-652.8c-12.8 0-25.6 4.267-38.4 17.067-8.533 8.533-17.067 25.6-17.067 38.4v473.6c0 12.8 4.267 25.6 17.067 38.4 12.8 8.533 25.6 12.8 38.4 12.8h72.533zM413.867 503.467l196.267-196.267c-4.267-4.267-12.8-12.8-17.067-17.067-8.533-4.267-17.067-8.533-25.6-12.8s-17.067-4.267-25.6-8.533v0c-17.067-4.267-38.4-4.267-55.467 0v0c-8.533 0-17.067 4.267-25.6 8.533s-17.067 8.533-25.6 12.8c-12.8 8.533-25.6 21.333-38.4 38.4-4.267 8.533-8.533 17.067-12.8 25.6s-4.267 17.067-8.533 25.6v0c-4.267 17.067-4.267 38.4 0 55.467v0c0 8.533 4.267 17.067 8.533 25.6s8.533 17.067 12.8 25.6c4.267 4.267 8.533 8.533 17.067 17.067zM384 857.6h183.467c59.733 0 110.933-29.867 145.067-76.8v0c21.333-29.867 55.467-46.933 89.6-46.933 93.867 0 170.667-76.8 170.667-170.667v-328.533c0-21.333-12.8-34.133-34.133-34.133s-34.133 17.067-34.133 34.133v328.533c0 59.733-46.933 106.667-106.667 106.667-55.467 0-110.933 29.867-140.8 76.8v0c-21.333 34.133-55.467 51.2-93.867 51.2h-179.2c-17.067 0-34.133 17.067-34.133 34.133s17.067 34.133 34.133 34.133z" />
<glyph unicode="&#xe930;" glyph-name="camera" d="M430.933 866.133c-72.533 0-132.267-55.467-140.8-128h-119.467c-64 0-119.467-55.467-119.467-119.467v-469.333c0-64 51.2-119.467 119.467-119.467h682.667c64 0 119.467 51.2 119.467 119.467v469.333c0 64-51.2 119.467-119.467 119.467h-119.467c-8.533 72.533-68.267 128-140.8 128h-162.133zM349.867 721.067c0 42.667 34.133 76.8 76.8 76.8h166.4c42.667 0 76.8-34.133 76.8-76.8 0-29.867 21.333-51.2 51.2-51.2h132.267c29.867 0 51.2-25.6 51.2-51.2v-469.333c0-29.867-25.6-51.2-51.2-51.2h-682.667c-29.867 0-51.2 25.6-51.2 51.2v469.333c0 29.867 25.6 51.2 51.2 51.2h132.267c25.6 0 46.933 25.6 46.933 51.2zM375.467 405.333c0 76.8 64 136.533 136.533 136.533s136.533-64 136.533-136.533-64-136.533-136.533-136.533-136.533 59.733-136.533 136.533zM512 610.133c-110.933 0-204.8-89.6-204.8-204.8s89.6-204.8 204.8-204.8c110.933 0 204.8 89.6 204.8 204.8s-93.867 204.8-204.8 204.8z" />
<glyph unicode="&#xe931;" glyph-name="capsule" d="M631.467 832c-25.6-8.533-46.933-25.6-68.267-42.667l-149.333-153.6 285.867-285.867 153.6 153.6c17.067 17.067 34.133 38.4 42.667 64s17.067 55.467 17.067 81.067c0 25.6-8.533 51.2-17.067 76.8-8.533 21.333-25.6 46.933-42.667 64-21.333 17.067-42.667 34.133-68.267 42.667-25.6 12.8-51.2 17.067-76.8 17.067s-51.2-8.533-76.8-17.067zM460.8 106.667l192 200.533-285.867 285.867-196.267-196.267c-38.4-38.4-59.733-89.6-59.733-145.067s21.333-106.667 59.733-145.067c38.4-38.4 89.6-59.733 145.067-59.733s106.667 21.333 145.067 59.733zM503.467 64c-25.6-25.6-55.467-42.667-85.333-59.733-34.133-12.8-68.267-21.333-102.4-21.333s-68.267 8.533-102.4 21.333c-34.133 12.8-59.733 34.133-85.333 59.733s-42.667 55.467-59.733 85.333c-12.8 34.133-21.333 68.267-21.333 102.4s8.533 68.267 21.333 102.4c12.8 34.133 34.133 59.733 59.733 85.333l392.533 392.533c25.6 25.6 55.467 42.667 85.333 59.733 34.133 12.8 68.267 21.333 102.4 21.333s68.267-8.533 102.4-21.333c34.133-12.8 59.733-34.133 85.333-59.733s42.667-55.467 59.733-85.333c12.8-34.133 21.333-68.267 21.333-102.4s-8.533-68.267-21.333-102.4c-12.8-34.133-34.133-59.733-59.733-85.333l-174.933-174.933c0 0 0 0 0 0l-217.6-217.6c0 0 0 0 0 0z" />
<glyph unicode="&#xe932;" glyph-name="card" d="M119.467 704v-51.2h785.067v51.2c0 25.6-21.333 51.2-51.2 51.2h-682.667c-25.6 0-51.2-21.333-51.2-51.2zM119.467 584.533v-149.333h789.333v149.333h-789.333zM904.533 371.2h-785.067v-179.2c0-29.867 25.6-51.2 51.2-51.2h682.667c29.867 0 51.2 25.6 51.2 51.2v179.2zM51.2 405.333v298.667c0 64 51.2 119.467 119.467 119.467h682.667c64 0 119.467-51.2 119.467-119.467v-512c0-64-51.2-119.467-119.467-119.467h-682.667c-64 0-119.467 51.2-119.467 119.467v213.333z" />
<glyph unicode="&#xe933;" glyph-name="cart" d="M170.667 836.267c4.267 0 4.267 0 8.533 0l8.533-4.267 140.8-524.8c8.533-29.867 21.333-55.467 46.933-72.533 25.6-21.333 46.933-29.867 76.8-29.867h315.733c29.867 0 55.467 8.533 76.8 25.6s38.4 38.4 46.933 68.267l102.4 307.2c4.267 12.8 4.267 25.6 4.267 38.4s-4.267 25.6-12.8 38.4c-4.267 8.533-17.067 17.067-25.6 21.333s-25.6 8.533-38.4 8.533v0h-635.733l-34.133 132.267c-4.267 21.333-12.8 34.133-25.6 51.2-21.333 4.267-38.4 12.8-59.733 12.8h-106.667c-21.333 0-38.4-21.333-38.4-38.4s12.8-38.4 38.4-38.4l110.933 4.267c-4.267 0-4.267 0 0 0zM311.467 614.4v0l-4.267 21.333h614.4c0 0 4.267 0 4.267-4.267v-8.533l-102.4-307.2c-4.267-8.533-8.533-25.6-25.6-29.867-12.8-4.267-25.6-8.533-34.133-8.533h-315.733c-12.8 0-25.6 4.267-34.133 12.8s-21.333 21.333-21.333 34.133l-81.067 290.133zM384 42.667c0 34.133 29.867 59.733 59.733 59.733v0c34.133 0 59.733-29.867 59.733-59.733s-29.867-59.733-59.733-59.733v0c-29.867 0-59.733 25.6-59.733 59.733zM742.4 102.4c-34.133 0-59.733-29.867-59.733-59.733s29.867-59.733 59.733-59.733v0c34.133 0 59.733 29.867 59.733 59.733-4.267 29.867-25.6 59.733-59.733 59.733v0z" />
<glyph unicode="&#xe934;" glyph-name="cast" d="M89.6 785.067c21.333 25.6 51.2 38.4 81.067 38.4h682.667c29.867 0 59.733-12.8 81.067-34.133s34.133-51.2 34.133-81.067v-512c0-29.867-12.8-59.733-34.133-81.067s-51.2-34.133-81.067-34.133h-213.333c-17.067 0-34.133 12.8-34.133 34.133s12.8 34.133 34.133 34.133h213.333c12.8 0 25.6 4.267 38.4 17.067s17.067 25.6 17.067 38.4v499.2c0 12.8-4.267 25.6-17.067 38.4-8.533 8.533-25.6 17.067-38.4 17.067h-682.667c-12.8 0-25.6-4.267-38.4-17.067-8.533-12.8-12.8-25.6-12.8-38.4v-42.667c0-17.067-12.8-34.133-34.133-34.133s-34.133 17.067-34.133 34.133v42.667c0 29.867 12.8 59.733 38.4 81.067zM51.2 320c0 17.067 12.8 34.133 34.133 34.133 34.133 0 64-4.267 93.867-17.067s55.467-29.867 81.067-51.2c21.333-21.333 42.667-51.2 51.2-81.067 12.8-29.867 17.067-59.733 17.067-93.867 0-17.067-12.8-34.133-34.133-34.133s-29.867 12.8-29.867 29.867c0 25.6-4.267 46.933-12.8 68.267s-21.333 42.667-38.4 59.733c-17.067 17.067-38.4 29.867-59.733 38.4s-46.933 12.8-68.267 12.8c-17.067 0-34.133 17.067-34.133 34.133zM85.333 524.8c-17.067 0-34.133-12.8-34.133-34.133s12.8-34.133 34.133-34.133c93.867 0 183.467-38.4 247.467-102.4s102.4-153.6 102.4-247.467c0-17.067 12.8-34.133 34.133-34.133s34.133 12.8 34.133 34.133c0 110.933-42.667 217.6-123.733 294.4-76.8 76.8-183.467 123.733-294.4 123.733zM29.867 106.667c0 29.867 25.6 51.2 51.2 51.2v0c29.867 0 51.2-25.6 51.2-51.2s-17.067-51.2-46.933-51.2v0c-29.867 0-55.467 21.333-55.467 51.2z" />
<glyph unicode="&#xe935;" glyph-name="check" d="M938.667 746.667c17.067-17.067 17.067-42.667 0-55.467l-516.267-520.533c-17.067-17.067-42.667-17.067-55.467 0l-256 256c-17.067 17.067-17.067 42.667 0 55.467s42.667 17.067 55.467 0l230.4-230.4 490.667 494.933c8.533 12.8 34.133 12.8 51.2 0z" />
<glyph unicode="&#xe936;" glyph-name="checks" d="M746.667 640c12.8 12.8 12.8 34.133 0 46.933s-34.133 12.8-46.933 0l-213.333-213.333c-12.8-12.8-12.8-34.133 0-46.933s34.133-12.8 46.933 0l213.333 213.333zM106.667 469.333c-12.8 12.8-34.133 12.8-46.933 0s-12.8-34.133 0-46.933l213.333-213.333c12.8-12.8 34.133-12.8 46.933 0s12.8 34.133 0 46.933l-213.333 213.333zM960 640c12.8 12.8 12.8 34.133 0 46.933s-34.133 12.8-46.933 0l-401.067-405.333-192 192c-12.8 12.8-34.133 12.8-46.933 0s-12.8-34.133 0-46.933l213.333-213.333c12.8-12.8 34.133-12.8 46.933 0l426.667 426.667z" />
<glyph unicode="&#xe937;" glyph-name="chevron-down" d="M277.333 554.667c12.8 12.8 34.133 12.8 46.933 0l192-192 192 192c12.8 12.8 34.133 12.8 46.933 0s12.8-34.133 0-46.933l-213.333-213.333c-12.8-12.8-34.133-12.8-46.933 0l-213.333 213.333c-17.067 17.067-17.067 34.133-4.267 46.933z" />
<glyph unicode="&#xe938;" glyph-name="chevron-left" d="M618.667 682.667c12.8-12.8 12.8-34.133 0-46.933l-187.733-187.733 192-192c12.8-12.8 12.8-34.133 0-46.933s-34.133-12.8-46.933 0l-213.333 213.333c-12.8 12.8-12.8 34.133 0 46.933l213.333 213.333c12.8 12.8 29.867 12.8 42.667 0z" />
<glyph unicode="&#xe939;" glyph-name="chevron-right" d="M405.333 682.667c12.8 12.8 34.133 12.8 46.933 0l213.333-213.333c12.8-12.8 12.8-34.133 0-46.933l-213.333-213.333c-12.8-12.8-34.133-12.8-46.933 0s-12.8 34.133 0 46.933l192 192-192 192c-12.8 12.8-12.8 29.867 0 42.667z" />
<glyph unicode="&#xe93a;" glyph-name="chevron-up" d="M490.667 597.333c12.8 12.8 34.133 12.8 46.933 0l213.333-213.333c12.8-12.8 12.8-34.133 0-46.933s-34.133-12.8-46.933 0l-192 192-192-192c-12.8-12.8-34.133-12.8-46.933 0s-12.8 34.133 0 46.933l217.6 213.333z" />
<glyph unicode="&#xe93b;" glyph-name="chevrons-down" d="M320 682.667c-12.8 12.8-34.133 12.8-46.933 0s-12.8-34.133 0-46.933l213.333-213.333c12.8-12.8 34.133-12.8 46.933 0l213.333 213.333c12.8 12.8 12.8 34.133 0 46.933s-34.133 12.8-46.933 0l-187.733-187.733-192 187.733zM320 426.667c-12.8 12.8-34.133 12.8-46.933 0s-12.8-34.133 0-46.933l213.333-213.333c12.8-12.8 34.133-12.8 46.933 0l213.333 213.333c12.8 12.8 12.8 34.133 0 46.933s-34.133 12.8-46.933 0l-187.733-187.733-192 187.733z" />
<glyph unicode="&#xe93c;" glyph-name="chevrons-left" d="M490.667 640c12.8 12.8 12.8 34.133 0 46.933s-34.133 12.8-46.933 0l-213.333-213.333c-12.8-12.8-12.8-34.133 0-46.933l213.333-213.333c12.8-12.8 34.133-12.8 46.933 0s12.8 34.133 0 46.933l-187.733 187.733 187.733 192zM746.667 640c12.8 12.8 12.8 34.133 0 46.933s-34.133 12.8-46.933 0l-213.333-213.333c-12.8-12.8-12.8-34.133 0-46.933l213.333-213.333c12.8-12.8 34.133-12.8 46.933 0s12.8 34.133 0 46.933l-187.733 187.733 187.733 192z" />
<glyph unicode="&#xe93d;" glyph-name="chevrons-right" d="M320 682.667c-12.8 12.8-34.133 12.8-46.933 0s-12.8-34.133 0-46.933l192-192-192-192c-12.8-12.8-12.8-34.133 0-46.933s34.133-12.8 46.933 0l213.333 213.333c12.8 12.8 12.8 34.133 0 46.933l-213.333 217.6zM576 682.667c-12.8 12.8-34.133 12.8-46.933 0s-12.8-34.133 0-46.933l192-192-192-192c-12.8-12.8-12.8-34.133 0-46.933s34.133-12.8 46.933 0l213.333 213.333c12.8 12.8 12.8 34.133 0 46.933l-213.333 217.6z" />
<glyph unicode="&#xe93e;" glyph-name="chevrons-up" d="M533.333 725.333c-12.8 12.8-34.133 12.8-46.933 0l-213.333-213.333c-12.8-12.8-12.8-34.133 0-46.933s34.133-12.8 46.933 0l192 192 192-192c12.8-12.8 34.133-12.8 46.933 0s12.8 34.133 0 46.933l-217.6 213.333zM746.667 256l-213.333 213.333c-12.8 12.8-34.133 12.8-46.933 0l-213.333-213.333c-12.8-12.8-12.8-34.133 0-46.933s34.133-12.8 46.933 0l192 192 192-192c12.8-12.8 34.133-12.8 46.933 0s8.533 34.133-4.267 46.933z" />
<glyph unicode="&#xe93f;" glyph-name="chip" d="M938.667 354.133h-93.867v187.733h93.867c17.067 0 34.133 12.8 34.133 34.133s-17.067 34.133-34.133 34.133h-93.867v51.2c0 64-51.2 119.467-119.467 119.467h-51.2v93.867c0 17.067-12.8 34.133-34.133 34.133s-34.133-17.067-34.133-34.133v-93.867h-187.733v93.867c0 17.067-12.8 34.133-34.133 34.133s-34.133-17.067-34.133-34.133v-93.867h-51.2c-64 0-119.467-55.467-119.467-119.467v-51.2h-93.867c-17.067 0-34.133-17.067-34.133-34.133s17.067-34.133 34.133-34.133h93.867v-192h-93.867c-17.067 0-34.133-12.8-34.133-34.133s12.8-34.133 34.133-34.133h93.867v-46.933c0-64 51.2-119.467 119.467-119.467h51.2v-93.867c0-17.067 12.8-34.133 34.133-34.133s34.133 12.8 34.133 34.133v93.867h192v-93.867c0-17.067 12.8-34.133 34.133-34.133s34.133 12.8 34.133 34.133v93.867h46.933c64 0 119.467 51.2 119.467 119.467v51.2h93.867c17.067 0 34.133 12.8 34.133 34.133s-17.067 34.133-34.133 34.133zM776.533 234.667c0-29.867-25.6-51.2-51.2-51.2h-426.667c-29.867 0-51.2 25.6-51.2 51.2v426.667c0 29.867 25.6 51.2 51.2 51.2h426.667c29.867 0 51.2-25.6 51.2-51.2v-426.667zM597.333 610.133h-170.667c-42.667 0-76.8-34.133-76.8-76.8v-170.667c0-42.667 34.133-76.8 76.8-76.8h170.667c42.667 0 76.8 34.133 76.8 76.8v170.667c0 42.667-34.133 76.8-76.8 76.8zM605.867 362.667c0-4.267-4.267-8.533-8.533-8.533h-170.667c-4.267 0-8.533 4.267-8.533 8.533v170.667c0 4.267 4.267 8.533 8.533 8.533h170.667c4.267 0 8.533-4.267 8.533-8.533v-170.667z" />
<glyph unicode="&#xe940;" glyph-name="circle-alert" d="M512 840.533c-217.6 0-392.533-174.933-392.533-392.533s174.933-392.533 392.533-392.533c217.6 0 392.533 174.933 392.533 392.533s-174.933 392.533-392.533 392.533zM51.2 448c0 251.733 209.067 460.8 460.8 460.8s460.8-204.8 460.8-460.8c0-251.733-204.8-460.8-460.8-460.8-251.733 0-460.8 209.067-460.8 460.8zM477.867 234.667c0 17.067 12.8 34.133 34.133 34.133v0c17.067 0 34.133-12.8 34.133-34.133s-12.8-34.133-34.133-34.133v0c-17.067 0-34.133 17.067-34.133 34.133zM546.133 661.333c0 17.067-12.8 34.133-34.133 34.133s-34.133-17.067-34.133-34.133v-256c0-17.067 12.8-34.133 34.133-34.133s34.133 12.8 34.133 34.133v256z" />
<glyph unicode="&#xe941;" glyph-name="circle-arrow-down" d="M512 840.533c-217.6 0-392.533-174.933-392.533-392.533s174.933-392.533 392.533-392.533c217.6 0 392.533 174.933 392.533 392.533s-174.933 392.533-392.533 392.533zM51.2 448c0 251.733 209.067 460.8 460.8 460.8s460.8-204.8 460.8-460.8c0-251.733-204.8-460.8-460.8-460.8-251.733 0-460.8 209.067-460.8 460.8zM320 558.933c12.8 12.8 34.133 8.533 46.933-4.267l145.067-183.467 145.067 183.467c12.8 12.8 29.867 17.067 46.933 4.267 12.8-12.8 17.067-29.867 4.267-46.933l-170.667-213.333c-4.267-8.533-17.067-12.8-25.6-12.8s-17.067 4.267-25.6 12.8l-170.667 213.333c-8.533 17.067-8.533 34.133 4.267 46.933z" />
<glyph unicode="&#xe942;" glyph-name="circle-arrow-left" d="M512 840.533c-217.6 0-392.533-174.933-392.533-392.533s174.933-392.533 392.533-392.533c217.6 0 392.533 174.933 392.533 392.533s-174.933 392.533-392.533 392.533zM51.2 448c0 251.733 209.067 460.8 460.8 460.8s460.8-204.8 460.8-460.8c0-251.733-204.8-460.8-460.8-460.8-251.733 0-460.8 209.067-460.8 460.8zM622.933 640c12.8-12.8 8.533-34.133-4.267-46.933l-183.467-145.067 183.467-145.067c12.8-12.8 17.067-29.867 4.267-46.933-12.8-12.8-29.867-17.067-46.933-4.267l-213.333 170.667c-8.533 4.267-12.8 17.067-12.8 25.6s4.267 17.067 12.8 25.6l213.333 170.667c17.067 8.533 34.133 8.533 46.933-4.267z" />
<glyph unicode="&#xe943;" glyph-name="circle-arrow-right" d="M512 840.533c-217.6 0-392.533-174.933-392.533-392.533s174.933-392.533 392.533-392.533c217.6 0 392.533 174.933 392.533 392.533s-174.933 392.533-392.533 392.533zM51.2 448c0 251.733 209.067 460.8 460.8 460.8s460.8-204.8 460.8-460.8c0-251.733-204.8-460.8-460.8-460.8-251.733 0-460.8 209.067-460.8 460.8zM401.067 640c12.8 12.8 29.867 17.067 46.933 4.267l213.333-170.667c8.533-4.267 12.8-17.067 12.8-25.6s-4.267-17.067-12.8-25.6l-213.333-170.667c-12.8-12.8-34.133-8.533-46.933 4.267s-8.533 34.133 4.267 46.933l183.467 145.067-183.467 145.067c-12.8 12.8-12.8 29.867-4.267 46.933z" />
<glyph unicode="&#xe944;" glyph-name="circle-arrow-up" d="M512 840.533c-217.6 0-392.533-174.933-392.533-392.533s174.933-392.533 392.533-392.533c217.6 0 392.533 174.933 392.533 392.533s-174.933 392.533-392.533 392.533zM51.2 448c0 251.733 209.067 460.8 460.8 460.8s460.8-204.8 460.8-460.8c0-251.733-204.8-460.8-460.8-460.8-251.733 0-460.8 209.067-460.8 460.8zM512 610.133c8.533 0 17.067-4.267 25.6-12.8l170.667-213.333c12.8-12.8 8.533-34.133-4.267-46.933s-34.133-8.533-46.933 4.267l-145.067 183.467-145.067-183.467c-12.8-12.8-29.867-17.067-46.933-4.267-12.8 12.8-17.067 29.867-4.267 46.933l170.667 213.333c8.533 4.267 17.067 12.8 25.6 12.8z" />
<glyph unicode="&#xe945;" glyph-name="circle-check" d="M512 840.533c-217.6 0-392.533-174.933-392.533-392.533s174.933-392.533 392.533-392.533c217.6 0 392.533 174.933 392.533 392.533s-174.933 392.533-392.533 392.533zM51.2 448c0 251.733 209.067 460.8 460.8 460.8s460.8-204.8 460.8-460.8c0-251.733-204.8-460.8-460.8-460.8-251.733 0-460.8 209.067-460.8 460.8zM742.4 644.267c12.8-8.533 17.067-29.867 8.533-42.667l-221.867-298.667c-21.333-25.6-59.733-29.867-81.067-4.267l-132.267 132.267c-12.8 12.8-12.8 34.133 0 46.933s34.133 12.8 46.933 0l123.733-123.733 213.333 290.133c8.533 8.533 29.867 8.533 42.667 0z" />
<glyph unicode="&#xe946;" glyph-name="circle-help" d="M512 840.533c-217.6 0-392.533-174.933-392.533-392.533s174.933-392.533 392.533-392.533c217.6 0 392.533 174.933 392.533 392.533s-174.933 392.533-392.533 392.533zM51.2 448c0 251.733 209.067 460.8 460.8 460.8s460.8-204.8 460.8-460.8c0-251.733-204.8-460.8-460.8-460.8-251.733 0-460.8 209.067-460.8 460.8zM477.867 234.667c0 17.067 12.8 34.133 34.133 34.133v0c17.067 0 34.133-12.8 34.133-34.133s-12.8-34.133-34.133-34.133v0c-17.067 0-34.133 17.067-34.133 34.133zM529.067 627.2c-17.067 4.267-38.4 0-55.467-4.267-17.067-8.533-34.133-21.333-42.667-34.133-8.533-17.067-12.8-38.4-12.8-55.467s-12.8-34.133-34.133-34.133-34.133 17.067-34.133 34.133c0 29.867 8.533 64 25.6 89.6s42.667 46.933 72.533 59.733c29.867 12.8 59.733 17.067 93.867 8.533 29.867-4.267 59.733-21.333 81.067-42.667s38.4-51.2 42.667-81.067c4.267-29.867 4.267-64-8.533-93.867s-34.133-55.467-59.733-72.533c-17.067-12.8-38.4-21.333-55.467-25.6v-12.8c0-17.067-12.8-34.133-34.133-34.133s-34.133 12.8-34.133 34.133v42.667c0 17.067 12.8 34.133 34.133 34.133 17.067 0 38.4 4.267 51.2 17.067s29.867 25.6 34.133 42.667c8.533 17.067 8.533 38.4 4.267 55.467s-12.8 34.133-25.6 51.2c-4.267 8.533-21.333 17.067-42.667 21.333z" />
<glyph unicode="&#xe947;" glyph-name="circle-info" d="M512 840.533c-217.6 0-392.533-174.933-392.533-392.533s174.933-392.533 392.533-392.533c217.6 0 392.533 174.933 392.533 392.533s-174.933 392.533-392.533 392.533zM51.2 448c0 251.733 209.067 460.8 460.8 460.8s460.8-204.8 460.8-460.8c0-251.733-204.8-460.8-460.8-460.8-251.733 0-460.8 209.067-460.8 460.8zM477.867 661.333c0 17.067 12.8 34.133 34.133 34.133v0c17.067 0 34.133-12.8 34.133-34.133s-17.067-34.133-34.133-34.133v0c-17.067 0-34.133 17.067-34.133 34.133zM546.133 490.667c0 17.067-12.8 34.133-34.133 34.133s-34.133-12.8-34.133-34.133v-256c0-17.067 12.8-34.133 34.133-34.133s34.133 12.8 34.133 34.133v256z" />
<glyph unicode="&#xe948;" glyph-name="circle-minus" d="M512 840.533c-217.6 0-392.533-174.933-392.533-392.533s174.933-392.533 392.533-392.533c217.6 0 392.533 174.933 392.533 392.533s-174.933 392.533-392.533 392.533zM51.2 448c0 251.733 209.067 460.8 460.8 460.8s460.8-204.8 460.8-460.8c0-251.733-204.8-460.8-460.8-460.8-251.733 0-460.8 209.067-460.8 460.8zM307.2 448c0 17.067 12.8 34.133 34.133 34.133h341.333c17.067 0 34.133-12.8 34.133-34.133s-12.8-34.133-34.133-34.133h-341.333c-17.067 0-34.133 17.067-34.133 34.133z" />
<glyph unicode="&#xe949;" glyph-name="circle-plus" d="M512 908.8c-251.733 0-460.8-209.067-460.8-460.8s209.067-460.8 460.8-460.8 460.8 209.067 460.8 460.8-209.067 460.8-460.8 460.8zM512 55.467c-217.6 0-392.533 174.933-392.533 392.533s174.933 392.533 392.533 392.533 392.533-174.933 392.533-392.533-174.933-392.533-392.533-392.533zM716.8 448c0-17.067-12.8-34.133-34.133-34.133h-136.533v-136.533c0-17.067-12.8-34.133-34.133-34.133s-34.133 12.8-34.133 34.133v136.533h-136.533c-17.067 0-34.133 12.8-34.133 34.133s12.8 34.133 34.133 34.133h136.533v136.533c0 17.067 12.8 34.133 34.133 34.133s34.133-12.8 34.133-34.133v-136.533h136.533c17.067 0 34.133-17.067 34.133-34.133z" />
<glyph unicode="&#xe94a;" glyph-name="circle-slash" d="M512 908.8c-251.733 0-460.8-209.067-460.8-460.8s204.8-460.8 460.8-460.8c251.733 0 460.8 204.8 460.8 460.8 0 251.733-209.067 460.8-460.8 460.8zM256 746.667c68.267 59.733 157.867 93.867 256 93.867 217.6 0 392.533-174.933 392.533-392.533 0-98.133-34.133-187.733-93.867-256l-554.667 554.667zM213.333 704l554.667-554.667c-68.267-59.733-157.867-93.867-256-93.867-217.6 0-392.533 174.933-392.533 392.533 0 98.133 34.133 187.733 93.867 256z" />
<glyph unicode="&#xe94b;" glyph-name="circle-x" d="M512 840.533c-217.6 0-392.533-174.933-392.533-392.533s174.933-392.533 392.533-392.533c217.6 0 392.533 174.933 392.533 392.533s-174.933 392.533-392.533 392.533zM51.2 448c0 251.733 209.067 460.8 460.8 460.8s460.8-204.8 460.8-460.8c0-251.733-204.8-460.8-460.8-460.8-251.733 0-460.8 209.067-460.8 460.8zM661.333 597.333c12.8-12.8 12.8-34.133 0-46.933l-102.4-102.4 106.667-106.667c12.8-12.8 12.8-34.133 0-46.933s-34.133-12.8-46.933 0l-106.667 106.667-106.667-106.667c-12.8-12.8-34.133-12.8-46.933 0s-12.8 34.133 0 46.933l106.667 106.667-102.4 106.667c-12.8 12.8-12.8 34.133 0 46.933s34.133 12.8 46.933 0l106.667-106.667 106.667 106.667c8.533 8.533 25.6 8.533 38.4-4.267z" />
<glyph unicode="&#xe94c;" glyph-name="clipboard" d="M891.733 789.333c-21.333 21.333-51.2 34.133-81.067 34.133h-59.733c-12.8 51.2-55.467 85.333-110.933 85.333h-256c-51.2 0-98.133-34.133-110.933-85.333h-59.733c-29.867 0-59.733-12.8-81.067-38.4-21.333-21.333-34.133-51.2-34.133-81.067v-593.067c0-29.867 12.8-59.733 34.133-81.067s51.2-34.133 81.067-34.133h597.333c29.867 0 59.733 12.8 81.067 34.133s34.133 51.2 34.133 81.067v597.333c0 29.867-12.8 59.733-34.133 81.067zM384 840.533h256c25.6 0 51.2-21.333 51.2-46.933v-4.267c0-12.8-4.267-25.6-17.067-38.4-8.533-8.533-25.6-17.067-38.4-17.067h-251.733c-29.867 4.267-51.2 25.6-51.2 55.467s25.6 51.2 51.2 51.2zM870.4 106.667c0-12.8-4.267-25.6-17.067-38.4s-25.6-17.067-38.4-17.067h-597.333c-12.8 0-29.867 8.533-38.4 17.067-12.8 12.8-17.067 25.6-17.067 38.4v597.333c0 12.8 4.267 25.6 12.8 34.133 12.8 12.8 25.6 17.067 38.4 17.067h59.733c4.267-17.067 12.8-34.133 25.6-51.2 25.6-21.333 55.467-34.133 85.333-34.133v4.267h264.533c51.2 0 98.133 34.133 110.933 85.333h55.467c12.8 0 29.867-8.533 38.4-17.067 12.8-12.8 17.067-25.6 17.067-38.4v-597.333z" />
<glyph unicode="&#xe94d;" glyph-name="cloud-download" d="M546.133 840.533c-64 8.533-128-8.533-183.467-42.667s-89.6-89.6-106.667-153.6c-4.267-8.533-12.8-17.067-21.333-21.333-29.867-8.533-55.467-25.6-76.8-46.933s-34.133-51.2-38.4-81.067c-4.267-29.867 0-59.733 12.8-89.6s34.133-51.2 55.467-68.267c12.8-8.533 17.067-29.867 8.533-42.667s-29.867-17.067-42.667-8.533c-34.133 25.6-64 55.467-81.067 98.133-17.067 38.4-21.333 81.067-17.067 123.733 8.533 42.667 25.6 81.067 51.2 115.2 25.6 25.6 55.467 46.933 89.6 59.733 21.333 68.267 68.267 132.267 132.267 170.667 68.267 42.667 149.333 64 226.133 51.2 81.067-8.533 153.6-51.2 204.8-110.933 46.933-55.467 76.8-119.467 81.067-192 29.867-8.533 55.467-25.6 76.8-46.933 25.6-25.6 46.933-64 51.2-102.4s0-76.8-17.067-110.933c-17.067-34.133-46.933-64-81.067-76.8-17.067-8.533-34.133 0-42.667 17.067s0 34.133 17.067 42.667c21.333 12.8 42.667 29.867 51.2 51.2 12.8 21.333 17.067 46.933 12.8 72.533s-17.067 46.933-34.133 64c-17.067 17.067-42.667 29.867-64 34.133-17.067 4.267-25.6 17.067-25.6 29.867 0 64-21.333 128-64 174.933-51.2 51.2-110.933 81.067-174.933 89.6zM704 213.333l-170.667-170.667c-12.8-12.8-34.133-12.8-46.933 0l-170.667 170.667c-12.8 12.8-12.8 34.133 0 46.933s34.133 12.8 46.933 0l115.2-115.2v302.933c0 17.067 12.8 34.133 34.133 34.133s34.133-12.8 34.133-34.133v-307.2l115.2 115.2c12.8 12.8 34.133 12.8 46.933 0 8.533-12.8 8.533-29.867-4.267-42.667z" />
<glyph unicode="&#xe94e;" glyph-name="cloud-drizzle" d="M546.133 840.533c-64 8.533-128-8.533-183.467-42.667s-89.6-89.6-106.667-153.6c-4.267-8.533-12.8-17.067-21.333-21.333-29.867-8.533-55.467-25.6-76.8-46.933s-34.133-51.2-38.4-81.067c-4.267-29.867 0-59.733 12.8-89.6s34.133-51.2 55.467-68.267c12.8-8.533 17.067-29.867 8.533-42.667s-29.867-17.067-42.667-8.533c-34.133 25.6-64 55.467-81.067 98.133-17.067 38.4-21.333 81.067-17.067 123.733 8.533 42.667 25.6 81.067 51.2 115.2 25.6 25.6 55.467 46.933 89.6 59.733 21.333 68.267 68.267 132.267 132.267 170.667 68.267 42.667 149.333 64 226.133 51.2 81.067-8.533 153.6-51.2 204.8-110.933 46.933-55.467 76.8-119.467 81.067-192 29.867-8.533 55.467-25.6 76.8-46.933 25.6-25.6 46.933-64 51.2-102.4s0-76.8-17.067-110.933c-17.067-34.133-46.933-64-81.067-76.8-17.067-8.533-34.133 0-42.667 17.067s0 34.133 17.067 42.667c21.333 12.8 42.667 29.867 51.2 51.2 12.8 21.333 17.067 46.933 12.8 72.533s-17.067 46.933-34.133 64c-17.067 17.067-42.667 29.867-64 34.133-17.067 4.267-25.6 17.067-25.6 29.867 0 64-21.333 128-64 174.933-51.2 51.2-110.933 81.067-174.933 89.6zM512 140.8c17.067 0 34.133-12.8 34.133-34.133v-85.333c0-17.067-12.8-34.133-34.133-34.133s-34.133 12.8-34.133 34.133v85.333c0 17.067 17.067 34.133 34.133 34.133zM512 396.8c17.067 0 34.133-12.8 34.133-34.133v-85.333c0-17.067-12.8-34.133-34.133-34.133s-34.133 12.8-34.133 34.133v85.333c0 17.067 17.067 34.133 34.133 34.133zM682.667 226.133c17.067 0 34.133-12.8 34.133-34.133v-85.333c0-17.067-12.8-34.133-34.133-34.133s-34.133 12.8-34.133 34.133v85.333c0 17.067 17.067 34.133 34.133 34.133zM682.667 482.133c17.067 0 34.133-12.8 34.133-34.133v-85.333c0-17.067-12.8-34.133-34.133-34.133s-34.133 12.8-34.133 34.133v85.333c0 17.067 17.067 34.133 34.133 34.133zM341.333 226.133c17.067 0 34.133-12.8 34.133-34.133v-85.333c0-17.067-12.8-34.133-34.133-34.133-17.067 0-34.133 12.8-34.133 34.133v85.333c0 17.067 17.067 34.133 34.133 34.133zM341.333 482.133c17.067 0 34.133-12.8 34.133-34.133v-85.333c0-17.067-12.8-34.133-34.133-34.133-17.067 0-34.133 12.8-34.133 34.133v85.333c0 17.067 17.067 34.133 34.133 34.133z" />
<glyph unicode="&#xe94f;" glyph-name="cloud-lightning" d="M546.133 797.867c-64 8.533-128-8.533-183.467-42.667s-89.6-89.6-106.667-153.6c-4.267-8.533-12.8-17.067-21.333-21.333-29.867-8.533-55.467-25.6-76.8-46.933s-34.133-51.2-38.4-81.067c-4.267-29.867 0-59.733 12.8-89.6s34.133-51.2 55.467-68.267c12.8-8.533 17.067-29.867 8.533-42.667s-29.867-17.067-42.667-8.533c-34.133 25.6-64 55.467-81.067 98.133-17.067 38.4-21.333 81.067-17.067 123.733 8.533 42.667 25.6 81.067 51.2 115.2 25.6 25.6 55.467 46.933 89.6 59.733 21.333 68.267 68.267 132.267 132.267 170.667 68.267 42.667 149.333 64 226.133 51.2 81.067-8.533 153.6-51.2 204.8-110.933 46.933-55.467 76.8-119.467 81.067-192 29.867-8.533 55.467-25.6 76.8-46.933 25.6-25.6 46.933-64 51.2-102.4s0-76.8-17.067-110.933c-17.067-34.133-46.933-64-81.067-76.8-17.067-8.533-34.133 0-42.667 17.067s0 34.133 17.067 42.667c21.333 12.8 42.667 29.867 51.2 51.2 12.8 21.333 17.067 46.933 12.8 72.533s-17.067 46.933-34.133 64c-17.067 17.067-42.667 29.867-64 34.133-17.067 4.267-25.6 17.067-25.6 29.867 0 64-21.333 128-64 174.933-51.2 51.2-110.933 81.067-174.933 89.6zM576 516.267c12.8-12.8 17.067-29.867 4.267-46.933l-128-162.133h187.733c12.8 0 25.6-8.533 29.867-17.067 4.267-12.8 4.267-25.6-4.267-34.133l-170.667-213.333c-12.8-12.8-29.867-17.067-46.933-4.267-12.8 12.8-17.067 29.867-4.267 46.933l128 162.133h-187.733c-12.8 0-25.6 8.533-29.867 17.067-4.267 12.8-4.267 25.6 4.267 34.133l170.667 213.333c12.8 12.8 29.867 12.8 46.933 4.267z" />
<glyph unicode="&#xe950;" glyph-name="cloud-rain" d="M546.133 840.533c-64 8.533-128-8.533-183.467-42.667s-89.6-89.6-106.667-153.6c-4.267-8.533-12.8-17.067-21.333-21.333-29.867-8.533-55.467-25.6-76.8-46.933s-34.133-51.2-38.4-81.067c-4.267-29.867 0-59.733 12.8-89.6s34.133-51.2 55.467-68.267c12.8-8.533 17.067-29.867 8.533-42.667s-29.867-17.067-42.667-8.533c-34.133 25.6-64 55.467-81.067 98.133-17.067 38.4-21.333 81.067-17.067 123.733 8.533 42.667 25.6 81.067 51.2 115.2 25.6 25.6 55.467 46.933 89.6 59.733 21.333 68.267 68.267 132.267 132.267 170.667 68.267 42.667 149.333 64 226.133 51.2 81.067-8.533 153.6-51.2 204.8-110.933 46.933-55.467 76.8-119.467 81.067-192 29.867-8.533 55.467-25.6 76.8-46.933 25.6-25.6 46.933-64 51.2-102.4s0-76.8-17.067-110.933c-17.067-34.133-46.933-64-81.067-76.8-17.067-8.533-34.133 0-42.667 17.067s0 34.133 17.067 42.667c21.333 12.8 42.667 29.867 51.2 51.2 12.8 21.333 17.067 46.933 12.8 72.533s-17.067 46.933-34.133 64c-17.067 17.067-42.667 29.867-64 34.133-17.067 4.267-25.6 17.067-25.6 29.867 0 64-21.333 128-64 174.933-51.2 51.2-110.933 81.067-174.933 89.6zM512 354.133c17.067 0 34.133-12.8 34.133-34.133v-298.667c0-17.067-12.8-34.133-34.133-34.133s-34.133 12.8-34.133 34.133v298.667c0 17.067 17.067 34.133 34.133 34.133zM682.667 482.133c17.067 0 34.133-12.8 34.133-34.133v-298.667c0-17.067-12.8-34.133-34.133-34.133s-34.133 12.8-34.133 34.133v298.667c0 17.067 17.067 34.133 34.133 34.133zM341.333 482.133c17.067 0 34.133-12.8 34.133-34.133v-298.667c0-17.067-12.8-34.133-34.133-34.133-17.067 0-34.133 12.8-34.133 34.133v298.667c0 17.067 17.067 34.133 34.133 34.133z" />
<glyph unicode="&#xe951;" glyph-name="cloud-snow" d="M546.133 797.867c-64 8.533-128-8.533-183.467-42.667s-89.6-89.6-106.667-153.6c-4.267-8.533-12.8-17.067-21.333-21.333-29.867-8.533-55.467-25.6-76.8-46.933s-34.133-51.2-38.4-81.067c-4.267-29.867 0-59.733 12.8-89.6s34.133-51.2 55.467-68.267c12.8-8.533 17.067-29.867 8.533-42.667s-29.867-17.067-42.667-8.533c-34.133 25.6-64 55.467-81.067 98.133-17.067 38.4-21.333 81.067-17.067 123.733 8.533 42.667 25.6 81.067 51.2 115.2 25.6 25.6 55.467 46.933 89.6 59.733 21.333 68.267 68.267 132.267 132.267 170.667 68.267 42.667 149.333 64 226.133 51.2 81.067-8.533 153.6-51.2 204.8-110.933 46.933-55.467 76.8-119.467 81.067-192 29.867-8.533 55.467-25.6 76.8-46.933 25.6-25.6 46.933-64 51.2-102.4s0-76.8-17.067-110.933c-17.067-34.133-46.933-64-81.067-76.8-17.067-8.533-34.133 0-42.667 17.067s0 34.133 17.067 42.667c21.333 12.8 42.667 29.867 51.2 51.2 12.8 21.333 17.067 46.933 12.8 72.533s-17.067 46.933-34.133 64c-17.067 17.067-42.667 29.867-64 34.133-17.067 4.267-25.6 17.067-25.6 29.867 0 64-21.333 128-64 174.933-51.2 51.2-110.933 81.067-174.933 89.6zM541.867 106.667c0-16.495-13.372-29.867-29.867-29.867s-29.867 13.372-29.867 29.867c0 16.495 13.372 29.867 29.867 29.867s29.867-13.372 29.867-29.867zM541.867 277.333c0-16.495-13.372-29.867-29.867-29.867s-29.867 13.372-29.867 29.867c0 16.495 13.372 29.867 29.867 29.867s29.867-13.372 29.867-29.867zM712.533 192c0-16.495-13.372-29.867-29.867-29.867s-29.867 13.372-29.867 29.867c0 16.495 13.372 29.867 29.867 29.867s29.867-13.372 29.867-29.867zM712.533 362.667c0-16.495-13.372-29.867-29.867-29.867s-29.867 13.372-29.867 29.867c0 16.495 13.372 29.867 29.867 29.867s29.867-13.372 29.867-29.867zM371.2 192c0-16.495-13.372-29.867-29.867-29.867s-29.867 13.372-29.867 29.867c0 16.495 13.372 29.867 29.867 29.867s29.867-13.372 29.867-29.867zM371.2 362.667c0-16.495-13.372-29.867-29.867-29.867s-29.867 13.372-29.867 29.867c0 16.495 13.372 29.867 29.867 29.867s29.867-13.372 29.867-29.867z" />
<glyph unicode="&#xe952;" glyph-name="cloud-upload" d="M546.133 755.2c-64 8.533-128-8.533-183.467-42.667s-89.6-89.6-106.667-153.6c-4.267-8.533-12.8-17.067-21.333-21.333-29.867-8.533-55.467-25.6-76.8-46.933s-34.133-51.2-38.4-81.067c-4.267-29.867 0-59.733 12.8-89.6s34.133-51.2 55.467-68.267c12.8-8.533 17.067-29.867 8.533-42.667s-29.867-17.067-42.667-8.533c-34.133 25.6-64 55.467-81.067 98.133-17.067 38.4-21.333 81.067-17.067 123.733 8.533 42.667 25.6 81.067 51.2 115.2 25.6 25.6 55.467 46.933 89.6 59.733 21.333 68.267 68.267 132.267 132.267 170.667 68.267 42.667 149.333 64 226.133 51.2 81.067-8.533 153.6-51.2 204.8-110.933 46.933-55.467 76.8-119.467 81.067-192 29.867-8.533 55.467-25.6 76.8-46.933 25.6-25.6 46.933-64 51.2-102.4s0-76.8-17.067-110.933c-17.067-34.133-46.933-64-81.067-76.8-17.067-8.533-34.133 0-42.667 17.067s0 34.133 17.067 42.667c21.333 12.8 42.667 29.867 51.2 51.2 12.8 21.333 17.067 46.933 12.8 72.533s-17.067 46.933-34.133 64c-17.067 17.067-42.667 29.867-64 34.133-17.067 4.267-25.6 17.067-25.6 29.867 0 64-21.333 128-64 174.933-51.2 51.2-110.933 81.067-174.933 89.6zM704 298.667c-12.8-12.8-34.133-12.8-46.933 0l-115.2 115.2v-307.2c0-17.067-12.8-34.133-34.133-34.133s-34.133 12.8-34.133 34.133v307.2l-115.2-115.2c-12.8-12.8-34.133-12.8-46.933 0s-12.8 34.133 0 46.933l170.667 170.667c12.8 12.8 34.133 12.8 46.933 0l170.667-170.667c17.067-17.067 17.067-34.133 4.267-46.933z" />
<glyph unicode="&#xe953;" glyph-name="cloud" d="M546.133 712.533c-64 8.533-128-8.533-183.467-42.667s-89.6-89.6-106.667-153.6c-4.267-12.8-12.8-21.333-21.333-21.333-38.4-12.8-68.267-34.133-89.6-68.267s-29.867-72.533-25.6-110.933c4.267-38.4 25.6-72.533 55.467-98.133s68.267-38.4 106.667-38.4h512c29.867 0 59.733 12.8 81.067 34.133s34.133 51.2 34.133 81.067v0 0c0 29.867-8.533 55.467-29.867 76.8-17.067 21.333-42.667 34.133-72.533 38.4-17.067 4.267-25.6 17.067-25.6 29.867 0 64-21.333 128-64 174.933-46.933 59.733-106.667 89.6-170.667 98.133zM328.533 721.067c68.267 42.667 149.333 64 226.133 51.2 81.067-8.533 153.6-51.2 204.8-110.933 46.933-55.467 76.8-119.467 81.067-192 34.133-8.533 64-29.867 85.333-55.467 29.867-34.133 42.667-76.8 42.667-119.467 0-46.933-17.067-93.867-51.2-128s-81.067-51.2-128-51.2h-512c-55.467 0-106.667 21.333-145.067 55.467-42.667 34.133-68.267 85.333-76.8 136.533-8.533 55.467 4.267 106.667 34.133 153.6 25.6 38.4 64 72.533 106.667 89.6 25.6 72.533 68.267 132.267 132.267 170.667z" />
<glyph unicode="&#xe954;" glyph-name="code-curly" d="M226.133 819.2c34.133 29.867 72.533 46.933 115.2 46.933h42.667c17.067 0 34.133-12.8 34.133-34.133s-17.067-34.133-34.133-34.133h-42.667c-25.6 0-51.2-8.533-68.267-25.6s-25.6-42.667-25.6-68.267v-128c0-42.667-17.067-81.067-46.933-115.2-4.267-4.267-12.8-8.533-17.067-12.8 4.267-4.267 12.8-8.533 17.067-12.8 29.867-34.133 46.933-72.533 46.933-115.2v-170.667c0-25.6 8.533-51.2 29.867-68.267 17.067-17.067 42.667-29.867 68.267-29.867h42.667c17.067 0 34.133-12.8 34.133-34.133s-21.333-29.867-38.4-29.867h-42.667c-42.667 0-81.067 17.067-115.2 46.933-29.867 34.133-46.933 72.533-46.933 115.2v170.667c0 25.6-8.533 51.2-29.867 68.267-17.067 17.067-42.667 29.867-68.267 29.867-17.067 0-34.133 12.8-34.133 34.133s12.8 34.133 34.133 34.133c25.6 0 51.2 8.533 68.267 29.867 21.333 8.533 29.867 34.133 29.867 59.733v128c0 42.667 17.067 81.067 46.933 115.2zM605.867 832c0 17.067 12.8 34.133 34.133 34.133h42.667c42.667 0 81.067-17.067 115.2-46.933 29.867-34.133 46.933-72.533 46.933-115.2v-128c0-25.6 8.533-51.2 29.867-68.267 17.067-17.067 42.667-29.867 68.267-29.867 17.067 0 34.133-12.8 34.133-34.133s-12.8-34.133-34.133-34.133c-25.6 0-51.2-8.533-68.267-29.867-17.067-17.067-29.867-42.667-29.867-68.267v-170.667c0-42.667-17.067-81.067-46.933-115.2-29.867-29.867-72.533-46.933-115.2-46.933h-42.667c-17.067 0-34.133 12.8-34.133 34.133s12.8 34.133 34.133 34.133h42.667c25.6 0 51.2 8.533 68.267 29.867 17.067 17.067 29.867 42.667 29.867 68.267v170.667c0 42.667 17.067 81.067 46.933 115.2 4.267 4.267 12.8 8.533 17.067 12.8-4.267 4.267-12.8 8.533-17.067 12.8-29.867 29.867-46.933 72.533-46.933 115.2v132.267c0 25.6-8.533 51.2-29.867 68.267-17.067 17.067-42.667 29.867-68.267 29.867h-42.667c-17.067-4.267-34.133 12.8-34.133 29.867z" />
<glyph unicode="&#xe955;" glyph-name="code" d="M362.667 682.667c12.8-12.8 12.8-34.133 0-46.933l-187.733-187.733 192-192c12.8-12.8 12.8-34.133 0-46.933s-34.133-12.8-46.933 0l-213.333 213.333c-12.8 12.8-12.8 34.133 0 46.933l213.333 213.333c12.8 12.8 29.867 12.8 42.667 0zM661.333 682.667c12.8 12.8 34.133 12.8 46.933 0l213.333-213.333c12.8-12.8 12.8-34.133 0-46.933l-213.333-213.333c-12.8-12.8-34.133-12.8-46.933 0s-12.8 34.133 0 46.933l192 192-192 192c-12.8 12.8-12.8 29.867 0 42.667z" />
<glyph unicode="&#xe956;" glyph-name="codepen" d="M64 273.067l430.933-285.867c17.067-8.533 29.867-8.533 46.933 0l430.933 285.867c12.8 8.533 21.333 21.333 21.333 34.133v285.867c0 12.8-8.533 25.6-21.333 34.133l-435.2 285.867c-17.067 8.533-29.867 8.533-46.933 0l-426.667-285.867c-12.8-12.8-21.333-21.333-21.333-34.133v-285.867c0-17.067 8.533-25.6 21.333-34.133zM473.6 98.133l-315.733 209.067 140.8 93.867 174.933-119.467v-183.467zM550.4 98.133v187.733l174.933 119.467 140.8-93.867-315.733-213.333zM900.267 379.733l-98.133 68.267 102.4 68.267-4.267-136.533zM550.4 797.867l315.733-209.067-140.8-93.867-174.933 119.467v183.467zM512 541.867l140.8-93.867-140.8-93.867-140.8 93.867 140.8 93.867zM473.6 797.867v-187.733l-174.933-115.2-140.8 98.133 315.733 204.8zM123.733 516.267v0l98.133-68.267-102.4-68.267 4.267 136.533z" />
<glyph unicode="&#xe957;" glyph-name="collapse" d="M917.333 810.667l-243.2-243.2h179.2c17.067 0 34.133-12.8 34.133-34.133s-12.8-34.133-34.133-34.133h-256c-4.267 0-8.533 0-12.8 4.267-8.533 4.267-12.8 8.533-17.067 17.067 0 4.267-4.267 8.533-4.267 12.8v256c0 17.067 12.8 34.133 34.133 34.133s34.133-12.8 34.133-34.133v-179.2l243.2 243.2c12.8 12.8 34.133 12.8 46.933 0 8.533-12.8 8.533-29.867-4.267-42.667zM460.8 362.667v-256c0-17.067-12.8-34.133-34.133-34.133s-34.133 17.067-34.133 34.133v179.2l-243.2-243.2c-12.8-12.8-34.133-12.8-46.933 0s-12.8 34.133 0 46.933l243.2 243.2h-174.933c-17.067 0-34.133 12.8-34.133 34.133s12.8 34.133 34.133 34.133h256c4.267 0 8.533 0 12.8-4.267 8.533-4.267 12.8-8.533 17.067-17.067 0-8.533 4.267-12.8 4.267-17.067z" />
<glyph unicode="&#xe958;" glyph-name="command" d="M810.667 311.467h-93.867v273.067h93.867c42.667 0 85.333 17.067 115.2 46.933 25.6 29.867 46.933 72.533 46.933 115.2s-17.067 85.333-46.933 115.2c-29.867 25.6-72.533 46.933-115.2 46.933s-85.333-17.067-115.2-46.933c-25.6-29.867-46.933-72.533-46.933-115.2v-93.867h-273.067v93.867c0 42.667-17.067 85.333-46.933 115.2-29.867 25.6-72.533 46.933-115.2 46.933s-85.333-21.333-115.2-46.933c-25.6-29.867-46.933-72.533-46.933-115.2s17.067-85.333 46.933-115.2c29.867-25.6 72.533-46.933 115.2-46.933h93.867v-277.333h-93.867c-42.667 0-85.333-17.067-115.2-46.933-25.6-25.6-46.933-68.267-46.933-110.933s17.067-85.333 46.933-115.2c29.867-25.6 72.533-46.933 115.2-46.933s85.333 17.067 115.2 46.933c25.6 29.867 46.933 72.533 46.933 115.2v93.867h277.333v-93.867c0-42.667 17.067-85.333 46.933-115.2s72.533-46.933 115.2-46.933 85.333 17.067 115.2 46.933c29.867 29.867 46.933 72.533 46.933 115.2s-17.067 85.333-46.933 115.2c-34.133 25.6-76.8 46.933-119.467 46.933zM307.2 149.333c0-25.6-8.533-51.2-29.867-68.267-17.067-17.067-42.667-29.867-68.267-29.867s-46.933 12.8-64 29.867c-17.067 17.067-29.867 42.667-29.867 68.267s8.533 51.2 29.867 68.267c17.067 17.067 42.667 29.867 68.267 29.867h93.867v-98.133zM307.2 652.8h-93.867c-25.6 0-51.2 8.533-68.267 25.6s-25.6 42.667-25.6 68.267 8.533 51.2 25.6 68.267c17.067 17.067 42.667 25.6 68.267 25.6s51.2-8.533 68.267-25.6c17.067-17.067 25.6-42.667 25.6-68.267v-93.867zM716.8 746.667c0 25.6 8.533 51.2 29.867 68.267 17.067 17.067 42.667 29.867 68.267 29.867s51.2-8.533 68.267-29.867c17.067-17.067 29.867-42.667 29.867-68.267s-17.067-51.2-34.133-68.267c-17.067-17.067-42.667-29.867-68.267-29.867h-93.867v98.133zM648.533 311.467h-273.067v273.067h277.333v-273.067zM878.933 81.067c-17.067-17.067-42.667-29.867-68.267-29.867s-51.2 8.533-68.267 29.867c-17.067 17.067-29.867 42.667-29.867 68.267v93.867h98.133c25.6 0 51.2-8.533 68.267-29.867 17.067-17.067 29.867-42.667 29.867-68.267s-12.8-46.933-29.867-64z" />
<glyph unicode="&#xe959;" glyph-name="compass" d="M512 840.533c-217.6 0-392.533-174.933-392.533-392.533s174.933-392.533 392.533-392.533c217.6 0 392.533 174.933 392.533 392.533s-174.933 392.533-392.533 392.533zM51.2 448c0 251.733 209.067 460.8 460.8 460.8s460.8-204.8 460.8-460.8c0-251.733-204.8-460.8-460.8-460.8-251.733 0-460.8 209.067-460.8 460.8zM704 640c8.533-8.533 12.8-17.067 8.533-29.867l-64-277.333c-4.267-12.8-12.8-21.333-25.6-25.6l-277.333-64c-12.8-4.267-21.333 0-29.867 8.533s-12.8 17.067-8.533 29.867l64 277.333c4.267 12.8 12.8 21.333 25.6 25.6l277.333 64c12.8 4.267 21.333 0 29.867-8.533zM430.933 529.067l-46.933-209.067 209.067 46.933 46.933 209.067-209.067-46.933z" />
<glyph unicode="&#xe95a;" glyph-name="copy" d="M934.4 614.4c-21.333 21.333-51.2 34.133-81.067 34.133h-136.533v140.8c0 64-51.2 119.467-119.467 119.467h-426.667c-64 0-119.467-55.467-119.467-119.467v-426.667c0-64 51.2-119.467 119.467-119.467h136.533v-136.533c0-29.867 12.8-59.733 34.133-81.067s51.2-34.133 81.067-34.133h426.667c29.867 0 59.733 12.8 81.067 34.133s34.133 51.2 34.133 81.067v426.667c8.533 29.867-4.267 59.733-29.867 81.067zM170.667 311.467c-29.867 0-51.2 25.6-51.2 51.2v426.667c0 29.867 25.6 51.2 51.2 51.2h426.667c29.867 0 51.2-25.6 51.2-51.2v-426.667c0-8.533 0-12.8-4.267-21.333-4.267-4.267-8.533-12.8-12.8-17.067s-8.533-8.533-17.067-12.8c-4.267-4.267-12.8-4.267-21.333-4.267h-422.4zM904.533 106.667c0-12.8-4.267-29.867-17.067-38.4-8.533-8.533-21.333-17.067-38.4-17.067h-422.4c-12.8 0-29.867 4.267-38.4 17.067-8.533 8.533-17.067 21.333-17.067 38.4v136.533h226.133c4.267 0 8.533 0 12.8 0s12.8 0 17.067 4.267c0 0 4.267 0 4.267 0 4.267 0 4.267 0 8.533 4.267 0 0 0 0 4.267 0 8.533 4.267 12.8 8.533 21.333 8.533 4.267 4.267 12.8 8.533 17.067 12.8s8.533 12.8 12.8 17.067c4.267 4.267 8.533 12.8 8.533 21.333 0 0 0 0 0 4.267s0 4.267 4.267 8.533c0 0 0 4.267 0 4.267 0 4.267 4.267 8.533 4.267 17.067 0 4.267 0 8.533 0 12.8v226.133h140.8c12.8 0 29.867-4.267 38.4-17.067 8.533-8.533 17.067-21.333 17.067-38.4v-422.4z" />
<glyph unicode="&#xe95b;" glyph-name="crop" d="M972.8 149.333c0-17.067-12.8-34.133-34.133-34.133h-93.867v-93.867c0-17.067-12.8-34.133-34.133-34.133s-34.133 12.8-34.133 34.133v93.867h-477.867c-29.867 0-59.733 12.8-81.067 34.133s-34.133 51.2-34.133 81.067v482.133h-98.133c-17.067 0-34.133 17.067-34.133 34.133s17.067 34.133 34.133 34.133h93.867v93.867c0 17.067 12.8 34.133 34.133 34.133s34.133-17.067 34.133-34.133v-640c0-12.8 4.267-29.867 17.067-38.4 8.533-8.533 21.333-17.067 38.4-17.067h640c12.8 4.267 29.867-12.8 29.867-29.867zM349.867 746.667c0 17.067 12.8 34.133 34.133 34.133h341.333c29.867 0 59.733-12.8 81.067-34.133s34.133-51.2 34.133-81.067v-341.333c0-17.067-12.8-34.133-34.133-34.133s-34.133 12.8-34.133 34.133v337.067c0 12.8-4.267 25.6-17.067 38.4-8.533 8.533-25.6 17.067-38.4 17.067h-332.8c-17.067-4.267-34.133 12.8-34.133 29.867z" />
<glyph unicode="&#xe95c;" glyph-name="cross" d="M802.133 691.2c12.8 12.8 12.8 34.133 0 46.933s-34.133 12.8-46.933 0l-243.2-243.2-243.2 243.2c-12.8 12.8-34.133 12.8-46.933 0s-12.8-34.133 0-46.933l243.2-243.2-243.2-243.2c-12.8-12.8-12.8-34.133 0-46.933s34.133-12.8 46.933 0l243.2 243.2 243.2-243.2c12.8-12.8 34.133-12.8 46.933 0s12.8 34.133 0 46.933l-243.2 243.2 243.2 243.2z" />
<glyph unicode="&#xe95d;" glyph-name="crosshair" d="M512 908.8c-251.733 0-460.8-209.067-460.8-460.8s209.067-460.8 460.8-460.8 460.8 209.067 460.8 460.8-209.067 460.8-460.8 460.8zM546.133 55.467v136.533c0 17.067-12.8 34.133-34.133 34.133s-34.133-12.8-34.133-34.133v-136.533c-192 17.067-345.6 170.667-362.667 362.667h140.8c17.067 0 34.133 12.8 34.133 34.133s-17.067 29.867-34.133 29.867h-136.533c17.067 192 170.667 345.6 362.667 362.667v-140.8c0-17.067 12.8-34.133 34.133-34.133s34.133 12.8 34.133 34.133v136.533c192-17.067 345.6-170.667 362.667-362.667h-145.067c-17.067 0-34.133-12.8-34.133-34.133s12.8-34.133 34.133-34.133h136.533c-12.8-187.733-166.4-341.333-358.4-354.133z" />
<glyph unicode="&#xe95e;" glyph-name="cup-hot" d="M934.4 529.067c-21.333 21.333-51.2 34.133-81.067 34.133h-136.533v55.467c0 17.067-12.8 34.133-34.133 34.133h-597.333c-17.067 0-34.133-17.067-34.133-34.133v-512c0-29.867 12.8-59.733 34.133-81.067s51.2-34.133 81.067-34.133h426.667c29.867 0 59.733 12.8 81.067 34.133s34.133 51.2 34.133 81.067v51.2h145.067c29.867 0 59.733 12.8 81.067 34.133s34.133 51.2 34.133 81.067v170.667c4.267 34.133-8.533 64-34.133 85.333zM648.533 106.667c0-12.8-4.267-29.867-17.067-38.4-8.533-8.533-21.333-17.067-38.4-17.067h-422.4c-12.8 0-29.867 4.267-38.4 17.067-8.533 8.533-17.067 21.333-17.067 38.4v477.867h533.333v-477.867zM904.533 277.333c0-12.8-4.267-29.867-17.067-38.4-8.533-8.533-21.333-17.067-38.4-17.067h-136.533v277.333h140.8c12.8 0 29.867-4.267 38.4-17.067 8.533-8.533 17.067-21.333 17.067-38.4v-166.4zM213.333 925.867c17.067 0 34.133-12.8 34.133-34.133v-128c0-17.067-12.8-34.133-34.133-34.133s-34.133 21.333-34.133 38.4v128c0 17.067 17.067 29.867 34.133 29.867zM384 925.867c17.067 0 34.133-12.8 34.133-34.133v-128c0-17.067-12.8-34.133-34.133-34.133s-34.133 21.333-34.133 38.4v128c0 17.067 17.067 29.867 34.133 29.867zM554.667 925.867c17.067 0 34.133-12.8 34.133-34.133v-128c0-17.067-12.8-34.133-34.133-34.133s-34.133 12.8-34.133 34.133v128c0 21.333 17.067 34.133 34.133 34.133z" />
<glyph unicode="&#xe95f;" glyph-name="cup" d="M934.4 657.067c-21.333 21.333-51.2 34.133-81.067 34.133h-136.533v55.467c0 17.067-12.8 34.133-34.133 34.133h-597.333c-17.067 0-34.133-17.067-34.133-34.133v-512c0-29.867 12.8-59.733 34.133-81.067s51.2-34.133 81.067-34.133h426.667c29.867 0 59.733 12.8 81.067 34.133s34.133 51.2 34.133 81.067v51.2h145.067c29.867 0 59.733 12.8 81.067 34.133s34.133 51.2 34.133 81.067v174.933c4.267 29.867-8.533 59.733-34.133 81.067zM648.533 234.667c0-12.8-4.267-29.867-17.067-38.4-8.533-8.533-21.333-17.067-38.4-17.067h-422.4c-12.8 0-29.867 4.267-38.4 17.067-8.533 8.533-17.067 21.333-17.067 38.4v477.867h533.333v-477.867zM904.533 405.333c0-12.8-4.267-29.867-17.067-38.4-8.533-8.533-21.333-17.067-38.4-17.067h-136.533v277.333h140.8c12.8 0 29.867-4.267 38.4-17.067 8.533-8.533 17.067-21.333 17.067-38.4v-166.4z" />
<glyph unicode="&#xe960;" glyph-name="database" d="M887.467 823.467c-21.333 17.067-55.467 34.133-93.867 46.933-72.533 25.6-174.933 38.4-281.6 38.4s-209.067-17.067-281.6-42.667c-38.4-12.8-68.267-25.6-93.867-42.667-21.333-17.067-42.667-42.667-42.667-76.8v-597.333c0-29.867 21.333-55.467 42.667-76.8 21.333-17.067 55.467-34.133 93.867-46.933 72.533-25.6 170.667-38.4 281.6-38.4s209.067 12.8 281.6 38.4c38.4 12.8 68.267 25.6 93.867 46.933 21.333 17.067 42.667 42.667 42.667 76.8v597.333c0 29.867-21.333 55.467-42.667 76.8zM861.867 149.333c0-4.267 0-12.8-17.067-25.6s-38.4-25.6-72.533-34.133c-64-21.333-157.867-34.133-260.267-34.133s-196.267 12.8-260.267 34.133c-34.133 12.8-55.467 21.333-72.533 34.133s-17.067 21.333-17.067 25.6v209.067c21.333-12.8 42.667-21.333 68.267-29.867 72.533-25.6 170.667-38.4 281.6-38.4s209.067 12.8 281.6 38.4c25.6 8.533 51.2 17.067 68.267 29.867v-209.067zM861.867 448c0-4.267 0-12.8-17.067-25.6s-38.4-25.6-72.533-34.133c-64-21.333-157.867-34.133-260.267-34.133s-196.267 12.8-260.267 34.133c-34.133 12.8-55.467 21.333-72.533 34.133s-17.067 21.333-17.067 25.6v209.067c21.333-12.8 42.667-21.333 72.533-29.867 68.267-25.6 170.667-42.667 277.333-42.667s209.067 12.8 281.6 38.4c25.6 8.533 51.2 21.333 72.533 29.867v-204.8zM844.8 721.067c-17.067-12.8-38.4-25.6-72.533-34.133-64-21.333-157.867-34.133-260.267-34.133s-196.267 12.8-260.267 34.133c-34.133 8.533-59.733 21.333-72.533 34.133-17.067 12.8-17.067 21.333-17.067 25.6s0 12.8 17.067 25.6c17.067 12.8 38.4 25.6 72.533 34.133 64 21.333 157.867 34.133 260.267 34.133s196.267-12.8 260.267-34.133c34.133-12.8 55.467-21.333 72.533-34.133s17.067-21.333 17.067-25.6 0-12.8-17.067-25.6z" />
<glyph unicode="&#xe961;" glyph-name="delete" d="M853.333 780.8h-473.6c-34.133 0-68.267-12.8-89.6-42.667l-183.467-213.333c-38.4-42.667-38.4-106.667 0-153.6l183.467-213.333c21.333-25.6 55.467-42.667 89.6-42.667h473.6c64 0 119.467 51.2 119.467 119.467v426.667c0 64-55.467 119.467-119.467 119.467zM904.533 234.667c0-29.867-25.6-51.2-51.2-51.2h-473.6c-17.067 0-29.867 8.533-42.667 17.067l-183.467 213.333c-17.067 21.333-17.067 51.2 0 68.267l183.467 213.333c8.533 12.8 25.6 17.067 42.667 17.067h473.6c29.867 0 51.2-25.6 51.2-51.2v-426.667zM789.333 341.333c12.8-12.8 12.8-34.133 0-46.933s-34.133-12.8-46.933 0l-102.4 106.667-106.667-106.667c-12.8-12.8-34.133-12.8-46.933 0s-12.8 34.133 0 46.933l106.667 106.667-106.667 106.667c-12.8 12.8-12.8 34.133 0 46.933s34.133 12.8 46.933 0l106.667-106.667 106.667 106.667c12.8 12.8 34.133 12.8 46.933 0s12.8-34.133 0-46.933l-106.667-106.667 102.4-106.667z" />
<glyph unicode="&#xe962;" glyph-name="disc" d="M512 840.533c-217.6 0-392.533-174.933-392.533-392.533s174.933-392.533 392.533-392.533c217.6 0 392.533 174.933 392.533 392.533s-174.933 392.533-392.533 392.533zM51.2 448c0 251.733 209.067 460.8 460.8 460.8s460.8-204.8 460.8-460.8c0-251.733-204.8-460.8-460.8-460.8-251.733 0-460.8 209.067-460.8 460.8zM512 541.867c-51.2 0-93.867-42.667-93.867-93.867s42.667-93.867 93.867-93.867 93.867 42.667 93.867 93.867-42.667 93.867-93.867 93.867zM349.867 448c0 89.6 72.533 162.133 162.133 162.133s162.133-72.533 162.133-162.133c0-89.6-72.533-162.133-162.133-162.133s-162.133 72.533-162.133 162.133z" />
<glyph unicode="&#xe963;" glyph-name="discord" d="M226.133 234.667c221.867-85.333 413.867-102.4 627.2 29.867 0-4.267-42.667-64-157.867-98.133 25.6-34.133 55.467-68.267 55.467-68.267 72.533 0 140.8 21.333 200.533 59.733 46.933 29.867 72.533 85.333 68.267 140.8-8.533 98.133-34.133 192-68.267 281.6-46.933 119.467-153.6 200.533-277.333 213.333-12.8 0-17.067 0-25.6 0l-8.533-8.533c145.067-42.667 217.6-106.667 217.6-106.667-221.867 110.933-482.133 110.933-704 4.267 0 0 72.533 68.267 226.133 106.667l-8.533 8.533c-17.067 0-34.133 0-46.933-4.267-115.2-21.333-213.333-98.133-256-209.067-34.133-93.867-59.733-192-68.267-290.133-4.267-55.467 21.333-106.667 64-136.533 59.733-38.4 128-59.733 196.267-59.733 0 0 29.867 38.4 55.467 68.267-102.4 29.867-145.067 93.867-145.067 98.133l21.333-8.533c8.533-8.533 21.333-12.8 34.133-21.333v0zM349.867 307.2c-51.2 0-89.6 46.933-89.6 98.133 0 46.933 42.667 89.6 89.6 89.6 51.2 0 89.6-46.933 89.6-98.133-4.267-51.2-42.667-89.6-89.6-89.6v0zM669.867 307.2c-51.2 0-89.6 46.933-89.6 98.133 0 46.933 42.667 89.6 89.6 89.6 51.2 0 89.6-46.933 89.6-98.133s-42.667-89.6-89.6-89.6z" />
<glyph unicode="&#xe964;" glyph-name="discount" d="M512 810.667c-8.533 0-12.8 0-21.333-4.267-4.267-4.267-12.8-8.533-17.067-12.8 0 0 0 0 0 0l-42.667-42.667c-21.333-21.333-51.2-34.133-81.067-34.133v0l-51.2-4.267c-12.8 0-25.6-4.267-38.4-17.067-8.533-8.533-12.8-21.333-12.8-34.133v-51.2c0-29.867-12.8-59.733-34.133-81.067l-42.667-42.667c0 0 0 0 0 0-4.267-4.267-8.533-8.533-12.8-17.067-4.267-4.267-4.267-12.8-4.267-21.333s0-12.8 4.267-21.333c4.267-4.267 8.533-12.8 12.8-17.067 0 0 0 0 0 0l42.667-42.667c21.333-21.333 34.133-51.2 34.133-81.067v0-51.2c0-12.8 4.267-25.6 17.067-38.4s25.6-17.067 38.4-17.067h51.2c29.867 0 59.733-12.8 81.067-34.133l42.667-42.667c0 0 0 0 0 0 4.267-4.267 8.533-8.533 17.067-12.8 4.267-4.267 12.8-4.267 21.333-4.267s12.8 0 21.333 4.267c4.267 4.267 12.8 8.533 17.067 12.8 0 0 0 0 0 0l42.667 42.667c21.333 21.333 51.2 34.133 81.067 34.133v0h51.2c12.8 0 25.6 4.267 38.4 17.067 8.533 8.533 17.067 25.6 17.067 38.4v51.2c0 29.867 12.8 59.733 34.133 81.067l42.667 42.667c0 0 0 0 0 0 4.267 4.267 8.533 8.533 12.8 17.067 4.267 4.267 4.267 12.8 4.267 21.333s0 12.8-4.267 21.333-8.533 12.8-12.8 17.067c0 0 0 0 0 0l-42.667 42.667c-21.333 21.333-34.133 51.2-34.133 81.067v0 51.2c0 12.8-4.267 25.6-17.067 38.4-8.533 8.533-25.6 17.067-38.4 17.067h-51.2c-29.867 0-59.733 12.8-81.067 34.133l-42.667 42.667c0 0 0 0 0 0-4.267 4.267-8.533 8.533-17.067 12.8-12.8 0-17.067 4.267-25.6 4.267zM465.067 861.867c17.067 8.533 29.867 12.8 46.933 12.8s29.867-4.267 46.933-8.533c12.8-4.267 25.6-17.067 38.4-25.6l42.667-42.667c8.533-8.533 21.333-17.067 38.4-17.067h46.933c29.867 0 59.733-12.8 81.067-34.133s34.133-51.2 34.133-81.067v-51.2c0-12.8 4.267-25.6 17.067-38.4v0l42.667-42.667c12.8-8.533 21.333-21.333 25.6-38.4 4.267-12.8 8.533-29.867 8.533-46.933s-4.267-29.867-8.533-46.933c-4.267-12.8-17.067-25.6-25.6-38.4l-42.667-42.667c-8.533-8.533-17.067-21.333-17.067-38.4v-46.933c0-29.867-12.8-59.733-34.133-81.067s-51.2-34.133-81.067-34.133h-51.2c-12.8 0-25.6-4.267-38.4-17.067v0l-42.667-42.667c-8.533-12.8-21.333-21.333-38.4-25.6-12.8-8.533-25.6-12.8-42.667-12.8s-29.867 4.267-46.933 8.533c-12.8 4.267-25.6 17.067-38.4 25.6l-42.667 42.667c-8.533 8.533-21.333 17.067-38.4 17.067h-46.933c-29.867 0-59.733 12.8-81.067 34.133s-34.133 51.2-34.133 81.067v51.2c0 12.8-4.267 25.6-17.067 38.4v0l-42.667 42.667c-12.8 8.533-21.333 21.333-25.6 38.4-8.533 17.067-12.8 29.867-12.8 46.933s4.267 29.867 8.533 46.933c4.267 12.8 17.067 25.6 25.6 38.4l42.667 42.667c8.533 8.533 17.067 21.333 17.067 38.4v46.933c0 29.867 12.8 59.733 34.133 81.067 25.6 25.6 55.467 34.133 85.333 34.133h51.2c12.8 0 25.6 4.267 38.4 17.067v0l42.667 42.667c8.533 12.8 21.333 21.333 34.133 25.6zM332.8 576c0 29.867 25.6 51.2 51.2 51.2h4.267c29.867 0 51.2-25.6 51.2-51.2s-25.6-51.2-51.2-51.2h-4.267c-29.867 0-51.2 21.333-51.2 51.2zM588.8 320c0 29.867 25.6 51.2 51.2 51.2h4.267c29.867 0 51.2-25.6 51.2-51.2s-25.6-51.2-51.2-51.2h-4.267c-29.867 0-51.2 21.333-51.2 51.2zM661.333 597.333c12.8-12.8 12.8-34.133 0-46.933l-256-256c-12.8-12.8-34.133-12.8-46.933 0s-12.8 34.133 0 46.933l256 256c17.067 12.8 34.133 12.8 46.933 0z" />
<glyph unicode="&#xe965;" glyph-name="dislike" d="M934.4 870.4c-21.333 21.333-51.2 34.133-81.067 34.133h-610.133c-29.867 0-55.467-8.533-76.8-29.867-21.333-12.8-34.133-38.4-38.4-68.267l-59.733-384c0-4.267 0-12.8 0-17.067 0-12.8 0-21.333 4.267-34.133 4.267-17.067 12.8-29.867 25.6-42.667s25.6-21.333 42.667-29.867c17.067-8.533 34.133-8.533 51.2-8.533h247.467l-25.6-166.4c0-4.267 0-12.8 0-17.067 0-12.8 0-21.333 4.267-34.133 4.267-17.067 12.8-29.867 25.6-42.667s25.6-21.333 42.667-29.867c17.067-8.533 34.133-8.533 46.933-8.533h21.333c12.8 0 21.333 4.267 29.867 17.067l162.133 281.6h106.667c29.867 0 59.733 12.8 81.067 34.133s34.133 51.2 34.133 81.067v384c4.267 29.867-8.533 59.733-34.133 81.067zM691.2 328.533l-157.867-277.333h-12.8c-8.533 0-17.067 0-21.333 4.267-8.533 4.267-12.8 8.533-17.067 12.8s-8.533 12.8-12.8 21.333c0 4.267-4.267 8.533-4.267 17.067 0 4.267 0 4.267 0 8.533l29.867 200.533c0 8.533 0 17.067-8.533 25.6s-17.067 12.8-25.6 12.8h-277.333c-8.533 0-17.067 0-21.333 4.267-8.533 4.267-12.8 8.533-17.067 12.8s-8.533 12.8-8.533 21.333c0 4.267 0 8.533 0 17.067 0 0 0 4.267 0 8.533l59.733 384c0 12.8 8.533 25.6 17.067 34.133s21.333 12.8 34.133 12.8h448v-520.533zM904.533 405.333c0-12.8-4.267-29.867-17.067-38.4-8.533-8.533-21.333-17.067-38.4-17.067h-93.867v490.667h98.133c12.8 0 29.867-4.267 38.4-17.067 8.533-8.533 17.067-21.333 17.067-38.4v-379.733z" />
<glyph unicode="&#xe966;" glyph-name="disqus" d="M524.8 567.467h-51.2v-234.667c12.8 4.267 170.667-25.6 170.667 119.467v0c4.267 68.267-46.933 115.2-119.467 115.2zM529.067 908.8c-328.533 0-546.133-349.867-409.6-652.8l-76.8-183.467 196.267 25.6c290.133-251.733 742.4-42.667 742.4 349.867 0 256-204.8 460.8-452.267 460.8zM776.533 448c0-132.267-93.867-230.4-256-230.4h-170.667v460.8h170.667c162.133 0 256-93.867 256-230.4v0 0z" />
</font>
</defs>
</svg>
